[动物世界] 大象"回声"的回忆 Nature.Echo.An.Elephant.to.Remember.2010.1080p.BluRay.x264-SADPANDA 3.28GB

[复制链接]
蓝鸟 发表于 2020-3-14 10:26:01 | 显示全部楼层 |阅读模式 打印 上一主题 下一主题
大象"回声"的回忆 Nature.Echo.An.Elephant.to.Remember.2010.1080p.BluRay.x264-SADPANDA 3.28GB-1.jpg

译  名 大象"回声"的回忆
片  名 Echo: An Elephant to Remember
年  代 2010
产  地 美国
类  别 纪录片
语  言 英语
上映日期 2010-08-05
IMDb评分  8.4/10 from 31 users
IMDb链接  https://www.imdb.com/title/tt1713800
豆瓣评分 0/10 from 0 users
豆瓣链接 https://movie.douban.com/subject/22894391/
片  长 59分钟
导  演 Mike Birkhead
编  剧 Tim Martin
主  演 Cynthia Moss
       Martyn Colbeck
       Chris Morgan


标  签 纪录片 | 英国 | 美国纪录片 | 2010年代 | 2010年

简  介  

  二零零九年年五月三日星期日,下午2点42分,ECHO(回声)去世了,享年65岁。安博塞利大象保护基金组织的工作人员闻讯纷纷从美国,英国赶回来。大家聚在一起,与ECHO家族成员一道同她告别
  ECHO 是世界上最著名的大象。BBC一连以三个系列专题:《Echo of the Elephants》;《Echo of the Elephants》;《the Next Generation》跟踪报道她和由她带领的有40只大象成员的大家庭。以她的名字为题的书《大象的回声》,最近Martyn Colbeck的纪录片《An Eye for An Elephant》,以及无数有关她的摄影作品。  ECHO的家族自1973年起和安博塞利大象保护基金的动物保护学家们相识。ECHO作为首领的整整36年里,她的家族从7只发展到现在的40只。ECHO 去世的原因综合了年老体弱和安博塞利一连三年大旱造成食物不足的双重因素。由于食物不足,ECHO的大家庭分散成五个小团队觅食,各自行走很远。 ECHO的妹妹,44岁的ELLE是个独立而坚强的母亲,带着自己的孩子们远走,可能还不知道ECHO的死讯。其他悲痛欲绝的家庭成员围在ECHO的大女儿ENID周围。ENID是两个孩子的母亲。她显得极为焦躁不安,发出不停的呼唤,眼泪不断
  ECHO的遗体安卧在只有家族成员和动物保护学家们知道的地方。一个大象们喜欢呆的美丽的地方。它们路过这里,扬起鼻子嗅着,不是很接近ECHO的遗体。野生动物保护协会的工作人员为ECHO的遗体筑起临时电缆,以防斑点鬣狗和秃鹫来犯。等她的肉体自然消亡之后,她的骨骼会被妥善处理,永久安放在安博塞利。这是第一次,安博塞利的工作人员为自然死亡的野生动物做出这样特别的安排。
  ECHO24岁的二女儿ELIOT带领着另外20只大象加入哀悼。最终大女儿ENID会担起领导大家族的重任。ECHO37岁的侄女EUDOLA带领着另外6只大象,ECHO的孙女EDVINA和自己的孩子在一起单独生活。她们每天白天来安博塞利Ol Tukai Orok沼泽周围饮水觅食,晚上回到金合欢树林一带休息。尽量呆在保护物以内。


该资源信息参数
  • Video
  • ID                                       : 1
  • Format                                   : AVC
  • Format/Info                              : Advanced Video Codec
  • Format profile                           : High@L4
  • Format settings                          : CABAC / 4 Ref Frames
  • Format settings, CABAC                   : Yes
  • Format settings, Reference frames        : 4 frames
  • Codec ID                                 : V_MPEG4/ISO/AVC
  • Duration                                 : 53 min 1 s
  • Bit rate                                 : 8 210 kb/s
  • Width                                    : 1 920 pixels
  • Height                                   : 1 080 pixels
  • Display aspect ratio                     : 16:9
  • Frame rate mode                          : Constant
  • Frame rate                               : 23.976 (23976/1000/189150) FPS
  • Color space                              : YUV
  • Chroma subsampling                       : 4:2:0
  • Bit depth                                : 8 bits
  • Scan type                                : Progressive
  • Bits/(Pixel*Frame)                       : 0.165
  • Stream size                              : 3.04 GiB (93%)
  • Writing library                          : x264 core 142 r2479 dd79a61
  • Encoding settings                        : cabac=1 / ref=4 / deblock=1:0:0 / analyse=0x3:0x133 / me=umh / subme=8 / psy=1 / psy_rd=1.00:0.00 / mixed_ref=1 / me_range=16 / chroma_me=1 / trellis=1 / 8x8dct=1 / cqm=0 / deadzone=21,11 / fast_pskip=0 / chroma_qp_offset=-2 / threads=12 / lookahead_threads=2 / sliced_threads=0 / nr=0 / decimate=1 / interlaced=0 / bluray_compat=0 / constrained_intra=0 / bframes=3 / b_pyramid=2 / b_adapt=1 / b_bias=0 / direct=1 / weightb=1 / open_gop=0 / weightp=2 / keyint=250 / keyint_min=23 / scenecut=40 / intra_refresh=0 / rc_lookahead=40 / rc=2pass / mbtree=1 / bitrate=8210 / ratetol=1.0 / qcomp=0.60 / qpmin=0 / qpmax=69 / qpstep=4 / cplxblur=20.0 / qblur=0.5 / ip_ratio=1.40 / aq=1:1.00
  • Language                                 : English
  • Default                                  : Yes
  • Forced                                   : No
  • Audio
  • ID                                       : 2
  • Format                                   : AC-3
  • Format/Info                              : Audio Coding 3
  • Commercial name                          : Dolby Digital
  • Codec ID                                 : A_AC3
  • Duration                                 : 53 min 1 s
  • Bit rate mode                            : Constant
  • Bit rate                                 : 640 kb/s
  • Channel(s)                               : 6 channels
  • Channel layout                           : L R C LFE Ls Rs
  • Sampling rate                            : 48.0 kHz
  • Frame rate                               : 31.250 FPS (1536 SPF)
  • Bit depth                                : 16 bits
  • Compression mode                         : Lossy
  • Stream size                              : 243 MiB (7%)
  • Language                                 : English
  • Service kind                             : Complete Main
  • Default                                  : Yes
  • Forced                                   : No
  • Text
  • ID                                       : 3
  • Format                                   : UTF-8
  • Codec ID                                 : S_TEXT/UTF8
  • Codec ID/Info                            : UTF-8 Plain Text
  • Duration                                 : 52 min 41 s
  • Bit rate                                 : 64 b/s
  • Count of elements                        : 696
  • Stream size                              : 25.0 KiB (0%)
  • Language                                 : English
  • Default                                  : No
  • Forced                                   : No



精彩剧照

大象"回声"的回忆 Nature.Echo.An.Elephant.to.Remember.2010.1080p.BluRay.x264-SADPANDA 3.28GB-2.jpg 大象"回声"的回忆 Nature.Echo.An.Elephant.to.Remember.2010.1080p.BluRay.x264-SADPANDA 3.28GB-3.jpg 大象"回声"的回忆 Nature.Echo.An.Elephant.to.Remember.2010.1080p.BluRay.x264-SADPANDA 3.28GB-4.jpg

蓝光高清网提示您 点击下方附件名称 马上开始下载

大象"回声"的回忆 Nature.Echo.An.Elephant.to.Remember.2010.1080p.BluRay.x264-SADPANDA 3.28GB


Nature.Echo.An.Elephant.to.Remember.2010.1080p.BluRay.x264-SADPANDA.torrent 
         (33.35 KB    阅读权限: 20)
加入蓝光高清网VIP会员  无限制下载本站所有资源---点这里

资源下载、资源播放、字幕使用、无法下载等常见问题---点这里
回复

使用道具 举报

您需要登录后才可以回帖 登录 | 立即注册

本版积分规则

关注0

粉丝1

帖子83917

发布主题
最新电影 论坛
本期活动
联系我们
点击这里联系客服

服务时间:
周一到周日8:00-23:30

  • 打开微信扫一扫
    关注公众号

  • 手机QQ扫一扫
    添加客服

手机版蓝光高清网 |网站地图

Powered by Discuz! X3.4  © 2001-2013 Comsenz Inc.