[动物世界] 老虎“断尾”的最后旅程 Nature.Broken.Tail.A.Tigers.Last.Journey.2011.1080p.BluRay.x264-SADPANDA 3.28GB

[复制链接]
蓝鸟 发表于 2020-3-14 10:27:10 | 显示全部楼层 |阅读模式 打印 上一主题 下一主题
老虎“断尾”的最后旅程 Nature.Broken.Tail.A.Tigers.Last.Journey.2011.1080p.BluRay.x264-SADPANDA 3.28GB-1.jpg

译  名 老虎“断尾”的最后旅程
片  名 Nature: Broken Tail A Tiger"s Last Journey
年  代 2011
产  地 美国
类  别 纪录片
语  言 英语
IMDb评分  7.8/10 from 26 users
IMDb链接  https://www.imdb.com/title/tt1799350
豆瓣评分 0/10 from 0 users
豆瓣链接 https://movie.douban.com/subject/22895126/

标  签 纪录片 | 老虎 | 动物 | 美国 | 2011 | 玛琪丽 | hao

简  介  


  被称为“断尾”的这个老虎出生在北印度的拉贾斯坦邦国家公园,这是一个广阔的自然保护区,为品种繁多的印度野生动物提供栖息地,尤其以孟加拉虎而闻名。历史上在印度传统中,这片区域的老虎曾经被印度大君保护过,然后相继被受庇于政府和保护项目中。但是,虽然有保护这片公园的政策,偷猎者在这些年里几乎没有停止过猎杀,老虎在艰难中生存。在某一时间里,保护区里只剩下26只老虎,而今天,每一只老虎的命运都牵动着整个物种的存亡。在这场危机面前,保护的努力要加倍,斗争仍继续。《“断尾”:一只老虎的最后之旅》讲述了一只老虎的生死存亡,它注定会强大起来,并且把它们的族群引向美好的未来。


该资源信息参数
  • Video
  • ID                                       : 1
  • Format                                   : AVC
  • Format/Info                              : Advanced Video Codec
  • Format profile                           : High@L4
  • Format settings                          : CABAC / 4 Ref Frames
  • Format settings, CABAC                   : Yes
  • Format settings, Reference frames        : 4 frames
  • Codec ID                                 : V_MPEG4/ISO/AVC
  • Duration                                 : 52 min 59 s
  • Bit rate                                 : 8 210 kb/s
  • Width                                    : 1 920 pixels
  • Height                                   : 1 080 pixels
  • Display aspect ratio                     : 16:9
  • Frame rate mode                          : Constant
  • Frame rate                               : 23.976 (23976/1000/189150) FPS
  • Color space                              : YUV
  • Chroma subsampling                       : 4:2:0
  • Bit depth                                : 8 bits
  • Scan type                                : Progressive
  • Bits/(Pixel*Frame)                       : 0.165
  • Stream size                              : 3.04 GiB (93%)
  • Writing library                          : x264 core 148 r2579 73ae2d1
  • Encoding settings                        : cabac=1 / ref=4 / deblock=1:0:0 / analyse=0x3:0x133 / me=umh / subme=8 / psy=1 / psy_rd=1.00:0.00 / mixed_ref=1 / me_range=16 / chroma_me=1 / trellis=1 / 8x8dct=1 / cqm=0 / deadzone=21,11 / fast_pskip=0 / chroma_qp_offset=-2 / threads=12 / lookahead_threads=2 / sliced_threads=0 / nr=0 / decimate=1 / interlaced=0 / bluray_compat=0 / constrained_intra=0 / bframes=3 / b_pyramid=2 / b_adapt=1 / b_bias=0 / direct=1 / weightb=1 / open_gop=0 / weightp=2 / keyint=250 / keyint_min=23 / scenecut=40 / intra_refresh=0 / rc_lookahead=40 / rc=2pass / mbtree=1 / bitrate=8210 / ratetol=1.0 / qcomp=0.60 / qpmin=0 / qpmax=69 / qpstep=4 / cplxblur=20.0 / qblur=0.5 / ip_ratio=1.40 / aq=1:1.00
  • Language                                 : English
  • Default                                  : Yes
  • Forced                                   : No
  • Audio
  • ID                                       : 2
  • Format                                   : AC-3
  • Format/Info                              : Audio Coding 3
  • Commercial name                          : Dolby Digital
  • Codec ID                                 : A_AC3
  • Duration                                 : 52 min 59 s
  • Bit rate mode                            : Constant
  • Bit rate                                 : 640 kb/s
  • Channel(s)                               : 6 channels
  • Channel layout                           : L R C LFE Ls Rs
  • Sampling rate                            : 48.0 kHz
  • Frame rate                               : 31.250 FPS (1536 SPF)
  • Bit depth                                : 16 bits
  • Compression mode                         : Lossy
  • Stream size                              : 243 MiB (7%)
  • Language                                 : English
  • Service kind                             : Complete Main
  • Default                                  : Yes
  • Forced                                   : No



精彩剧照


老虎“断尾”的最后旅程 Nature.Broken.Tail.A.Tigers.Last.Journey.2011.1080p.BluRay.x264-SADPANDA 3.28GB-2.jpg 老虎“断尾”的最后旅程 Nature.Broken.Tail.A.Tigers.Last.Journey.2011.1080p.BluRay.x264-SADPANDA 3.28GB-3.jpg 老虎“断尾”的最后旅程 Nature.Broken.Tail.A.Tigers.Last.Journey.2011.1080p.BluRay.x264-SADPANDA 3.28GB-4.jpg


蓝光高清网提示您 点击下方附件名称 马上开始下载

老虎“断尾”的最后旅程 Nature.Broken.Tail.A.Tigers.Last.Journey.2011.1080p.BluRay.x264-SADPANDA 3.28GB


Nature.Broken.Tail.A.Tigers.Last.Journey.2011.1080p.BluRay.x264-SADPANDA.torrent 
         (33.34 KB    阅读权限: 20)
加入蓝光高清网VIP会员  无限制下载本站所有资源---点这里

资源下载、资源播放、字幕使用、无法下载等常见问题---点这里
回复

使用道具 举报

精彩评论2

奈何 发表于 2020-3-29 10:06:40 | 显示全部楼层

非常感谢蓝光高清网给大家的享乐4k,祝蓝光高清网越办越好!
回复

使用道具 举报

苏合 发表于 2020-3-29 12:50:52 | 显示全部楼层
顶!!!!!!!!!!!!!!!!
回复

使用道具 举报

您需要登录后才可以回帖 登录 | 立即注册

本版积分规则

关注0

粉丝1

帖子83917

发布主题
最新电影 论坛
本期活动
联系我们
点击这里联系客服

服务时间:
周一到周日8:00-23:30

  • 打开微信扫一扫
    关注公众号

  • 手机QQ扫一扫
    添加客服

手机版蓝光高清网 |网站地图

Powered by Discuz! X3.4  © 2001-2013 Comsenz Inc.