贝茨旅馆惊魂记
sbs 
3.6
  • 年代: 2012年
  • 国家/地区: 美国
  • 类型: 惊悚 
  • 导演: Byron Turk
  • 音轨: DTS-HD.MA 5.1 
  • 时长: 77分钟
  • 主演:Jean Louise O'Sullivan / Zachary Fletcher / Ryan Dunn / Rocco A. Amato / Randy Bates
特别声明:本站提供的所有高清电影作品均是在网上搜集,任何涉及商业盈利目的均不得使用,否则产生的一切后果将由您自己承担!本站将不对本站的任何内容负任何法律责任!该下载内容仅做宽带测试使用,请在下载后24小时内删除。请购买正版! 本站所有资源均由网上收集而来,版权归原影音公司所有,如果侵犯了你的权益,请通知我们,我们会及时删除侵权内容.

贝茨旅馆惊魂记/杀戮鬼屋 The.Bates.Haunting.3D.2012.1080p.BluRay.x264-UNVEiL 6.55GB

[复制链接]
4k演示 发表于 2020-3-22 09:57:03 | 显示全部楼层 |阅读模式 打印 上一主题 下一主题
简  介
& j8 C8 k) L. k, U  @
! p7 I" w4 O! I* M
+ T6 m3 U; c% T" h/ D
  一年前,女主角在贝茨旅馆举行的表演上看到她最好的朋友不幸被烧死。一年后旅馆重新开业,女主角去那故地重游试图治疗心灵创伤。却是遇上不断有人死亡,这背后到底隐藏着什么不为人知的真相呢?1 u! d* A8 d+ Y. y$ N! i& ]- y5 h

/ Q" H3 X/ `( U5 X( k+ T9 b+ V影片参数1 A: U. R* }5 ]6 n2 x! Y( ~
Video
# U; `; Y2 J8 Z% B, qID                                       : 1
# O9 c2 Q! Y8 y. ?7 BFormat                                   : AVC, }6 F% E' P, M; g5 S; |
Format/Info                              : Advanced Video Codec
1 G% S0 T8 C2 nFormat profile                           : High@L4, _) h! D. [% ^8 U) i9 [& h9 j
Format settings                          : CABAC / 4 Ref Frames% c/ e0 }" i& b' v, T. _
Format settings, CABAC                   : Yes4 `! f. [0 @5 D3 |
Format settings, Reference frames        : 4 frames
/ ~0 w1 W" m6 h' i  w# J# OCodec ID                                 : V_MPEG4/ISO/AVC
% E3 d7 _# E, L7 {( ~" dDuration                                 : 1 h 17 min: M% `& S' \( R
Bit rate                                 : 10.7 Mb/s6 b* {( l. I# x; U
Width                                    : 1 920 pixels3 J' L. R. j' E0 r5 ^. [
Height                                   : 1 080 pixels
  c% x9 t  f- J& S1 I, fDisplay aspect ratio                     : 16:9+ v- G0 b7 m! m/ j9 q
Frame rate mode                          : Constant& q, j# P6 v3 z" \+ R
Frame rate                               : 23.976 FPS. e5 z" u2 @5 w
Color space                              : YUV& Y, n8 l1 X+ i
Chroma subsampling                       : 4:2:0; D, o( \' m# f9 F. a8 G$ J* c
Bit depth                                : 8 bits9 O8 h1 n* E+ i8 ]% _1 M
Scan type                                : Progressive. w; D) e- w! v2 a- ~
Bits/(Pixel*Frame)                       : 0.214
( {& S: u' @0 |/ CStream size                              : 5.61 GiB (86%)/ k8 }( `8 c& D2 r8 b+ X
Writing library                          : x264 core 158 r2988 7817004
! A) T5 m5 _! G. M) I, v7 sEncoding settings                        : cabac=1 / ref=4 / deblock=1:-3:-3 / analyse=0x3:0x133 / me=umh / subme=8 / psy=1 / psy_rd=1.00:0.15 / mixed_ref=1 / me_range=16 / chroma_me=1 / trellis=2 / 8x8dct=1 / cqm=0 / deadzone=21,11 / fast_pskip=0 / chroma_qp_offset=-3 / threads=34 / lookahead_threads=5 / sliced_threads=0 / nr=0 / decimate=1 / interlaced=0 / bluray_compat=0 / constrained_intra=0 / bframes=3 / b_pyramid=2 / b_adapt=2 / b_bias=0 / direct=3 / weightb=1 / open_gop=0 / weightp=2 / keyint=240 / keyint_min=24 / scenecut=40 / intra_refresh=0 / rc_lookahead=50 / rc=2pass / mbtree=1 / bitrate=10662 / ratetol=1.0 / qcomp=0.60 / qpmin=0 / qpmax=69 / qpstep=4 / cplxblur=20.0 / qblur=0.5 / ip_ratio=1.40 / aq=1:1.00
4 P1 g1 q3 _- ?Language                                 : English
' i$ Q2 o% A- z+ q2 W2 ]Default                                  : Yes
2 v& b9 ?( |' M$ W8 uForced                                   : No
) w4 M# [0 {/ k* ]' g/ q6 P2 n  E$ D, K" Q' }

* f" O+ ]4 }( w3 ?' @7 c9 tAudio
2 ~! w. h0 E9 pID                                       : 2
, A# ?: ^, S7 {0 b. [Format                                   : DTS
5 N0 t$ k/ n3 }( YFormat/Info                              : Digital Theater Systems' G: {7 y% ]9 u& |
Codec ID                                 : A_DTS
7 b5 P2 f6 L" B6 G$ [$ r  KDuration                                 : 1 h 17 min# _- Y. `2 t5 R! x
Bit rate mode                            : Constant1 ^( P. j) @( w5 O, X  s7 k* Z
Bit rate                                 : 1 509 kb/s# u% N# s. `2 |7 n" y
Channel(s)                               : 6 channels* `3 I5 z2 \$ z# o5 v
Channel layout                           : C L R Ls Rs LFE* H# d2 N4 f# ^$ V; B
Sampling rate                            : 48.0 kHz
2 j2 j0 R4 [( C) g/ ?' b( _Frame rate                               : 93.750 FPS (512 SPF)
4 m8 }% }4 R. X$ e" V& YBit depth                                : 24 bits
, N# E/ t# U4 H1 E& U2 W( WCompression mode                         : Lossy
* `" R. ~! M* U3 L+ W+ IStream size                              : 832 MiB (12%)
: M: v! ?% _# Z- ?' M. cLanguage                                 : English, k4 R& j2 F( V! l+ ?6 [, F' D
Default                                  : Yes! c+ @5 n6 I2 M: I2 Y5 Q- g
Forced                                   : No3 b7 n- N4 e) `3 y# d

7 R2 w+ |4 S5 z% c' m" ^

7 h% ^# n. Q3 S' A/ B精彩剧照5 S' ~& k& k" W8 Y2 b) a: d
贝茨旅馆惊魂记/杀戮鬼屋 The.Bates.Haunting.3D.2012.1080p.BluRay.x264-UNVEiL 6.55GB-1.png + {9 X% h$ D" A, u

8 E0 e3 s* T3 L$ a  L4 T- L2 B& i+ s' z9 x. z
蓝光高清网提示您  点击下方附件名称  马上开始下载
8 G+ M5 M5 k+ x- G8 _7 B' n
* b, b+ u; C: R2 ^. C" N贝茨旅馆惊魂记/杀戮鬼屋 The.Bates.Haunting.3D.2012.1080p.BluRay.x264-UNVEiL 6.55GB
! U3 P# h/ w0 S" G* n5 f: Z4 u, r0 q The.Bates.Haunting.3D.2012.1080p.BluRay.x264-UNVEiL.torrent 
         (33.5 KB    阅读权限: 20)
回复

使用道具 举报

精彩评论12

雨的承诺 发表于 2020-3-23 18:08:59 | 显示全部楼层
非常感谢蓝光高清网分享的各种知识和资源,祝蓝光高清网越来越好
回复

使用道具 举报

雨的承诺 发表于 2020-3-25 13:08:47 | 显示全部楼层
非常感谢蓝光高清网分享的各种知识和资源,祝蓝光高清网越来越好
回复

使用道具 举报

石牛河2014 发表于 2020-4-9 17:42:40 | 显示全部楼层
非常感谢蓝光高清网分享的各种知识和资源,祝蓝光高清网越来越好
回复

使用道具 举报

雨的承诺 发表于 2020-4-13 14:02:33 | 显示全部楼层
非常感谢蓝光高清网分享的各种知识和资源,祝蓝光高清网越来越好
回复

使用道具 举报

poetlong 发表于 2020-4-14 10:32:36 | 显示全部楼层

- t* j( m, {4 W; ~" y7 P非常感谢蓝光高清网给大家的享乐4k,祝蓝光高清网越办越好!
回复

使用道具 举报

1100105610 发表于 2020-4-22 13:04:08 | 显示全部楼层
" a, y4 f% e. |: ~$ e
支持蓝光高清网!
回复

使用道具 举报

1100105610 发表于 2020-4-28 08:36:29 | 显示全部楼层

/ }2 y6 j7 \8 \: {. `祝蓝光高清网越办越红火。
回复

使用道具 举报

wrangler7 发表于 2020-7-8 06:29:14 | 显示全部楼层

, P! b( ^, P: ]0 C+ d" Q支持蓝光高清网!
回复

使用道具 举报

wrangler7 发表于 2020-7-15 08:13:50 | 显示全部楼层

! Y3 B# J! v$ }+ g6 }+ l! ?' y( _近期肺炎闹得挺厉害,大家伙还是多访问访问蓝光高清网,为国家做贡献。访问蓝光高清网,就是为国出力
回复

使用道具 举报

您需要登录后才可以回帖 登录 | 立即注册

本版积分规则

关注0

粉丝0

帖子734

发布主题
最新电影 论坛
本期活动
联系我们
点击这里联系客服

服务时间:
周一到周日8:00-23:30

  • 打开微信扫一扫
    关注公众号

  • 手机QQ扫一扫
    添加客服

手机版蓝光高清网 |网站地图

Powered by Discuz! X3.4 Licensed  © 2001-2013 Comsenz Inc.