贝茨旅馆惊魂记
sbs 
3.6
  • 年代: 2012年
  • 国家/地区: 美国
  • 类型: 惊悚 
  • 导演: Byron Turk
  • 音轨: DTS-HD.MA 5.1 
  • 时长: 77分钟
  • 主演:Jean Louise O'Sullivan / Zachary Fletcher / Ryan Dunn / Rocco A. Amato / Randy Bates
特别声明:本站提供的所有高清电影作品均是在网上搜集,任何涉及商业盈利目的均不得使用,否则产生的一切后果将由您自己承担!本站将不对本站的任何内容负任何法律责任!该下载内容仅做宽带测试使用,请在下载后24小时内删除。请购买正版! 本站所有资源均由网上收集而来,版权归原影音公司所有,如果侵犯了你的权益,请通知我们,我们会及时删除侵权内容.

贝茨旅馆惊魂记/杀戮鬼屋 The.Bates.Haunting.3D.2012.1080p.BluRay.x264-UNVEiL 6.55GB

[复制链接]
4k演示 发表于 2020-3-22 09:57:03 | 显示全部楼层 |阅读模式 打印 上一主题 下一主题
简  介 ; [$ G" Z2 J* Z- \. w0 h

) R8 M& E* Z, ?5 j  ]

# t# [3 A2 A+ s5 g& N: j$ I  一年前,女主角在贝茨旅馆举行的表演上看到她最好的朋友不幸被烧死。一年后旅馆重新开业,女主角去那故地重游试图治疗心灵创伤。却是遇上不断有人死亡,这背后到底隐藏着什么不为人知的真相呢?
, z: \& P9 M5 N% @
( S4 E* l4 M6 M, m" ?; _! T影片参数$ h7 P( L9 _( w: S, G5 n+ V
Video
" V' D& W1 |) N* m& j4 WID                                       : 1
+ I: r( F4 `- o' s  @Format                                   : AVC
7 Z* [6 S( w/ ~Format/Info                              : Advanced Video Codec
7 q0 O( [" V) I7 L; JFormat profile                           : High@L4
# n" R: l3 p( W$ pFormat settings                          : CABAC / 4 Ref Frames8 n, p$ D/ L/ v4 g
Format settings, CABAC                   : Yes
3 Q% t+ }3 k5 G: V$ S# s6 yFormat settings, Reference frames        : 4 frames
" N( ^+ c$ a  j8 ~9 c2 N* qCodec ID                                 : V_MPEG4/ISO/AVC- E  C$ b5 ]; O7 Z
Duration                                 : 1 h 17 min( k: w  y# T7 i5 t0 G- N
Bit rate                                 : 10.7 Mb/s) T% q, E$ T9 `1 ]
Width                                    : 1 920 pixels8 S3 q, T9 H* [
Height                                   : 1 080 pixels
1 e" V6 B- B. G4 a! V5 r' _Display aspect ratio                     : 16:9
7 r8 e0 {7 B4 q- H7 v& _Frame rate mode                          : Constant" q% }1 ]' ?4 D
Frame rate                               : 23.976 FPS' S5 I$ s+ o6 H1 n- [7 U0 Z. Q+ m# {
Color space                              : YUV; b7 T9 u. Z6 \1 R1 s! Y
Chroma subsampling                       : 4:2:0
% q% f6 {$ t/ eBit depth                                : 8 bits
, C% b" n% S& O) Z' R4 U3 O: HScan type                                : Progressive
$ a! g. v, _6 M/ ?, [: k# E# K3 k, dBits/(Pixel*Frame)                       : 0.214
  h9 ^. E5 b& d/ lStream size                              : 5.61 GiB (86%)
$ P, C6 w- t; h$ G2 {7 \Writing library                          : x264 core 158 r2988 7817004
+ p2 C8 r( D6 S5 `" k7 EEncoding settings                        : cabac=1 / ref=4 / deblock=1:-3:-3 / analyse=0x3:0x133 / me=umh / subme=8 / psy=1 / psy_rd=1.00:0.15 / mixed_ref=1 / me_range=16 / chroma_me=1 / trellis=2 / 8x8dct=1 / cqm=0 / deadzone=21,11 / fast_pskip=0 / chroma_qp_offset=-3 / threads=34 / lookahead_threads=5 / sliced_threads=0 / nr=0 / decimate=1 / interlaced=0 / bluray_compat=0 / constrained_intra=0 / bframes=3 / b_pyramid=2 / b_adapt=2 / b_bias=0 / direct=3 / weightb=1 / open_gop=0 / weightp=2 / keyint=240 / keyint_min=24 / scenecut=40 / intra_refresh=0 / rc_lookahead=50 / rc=2pass / mbtree=1 / bitrate=10662 / ratetol=1.0 / qcomp=0.60 / qpmin=0 / qpmax=69 / qpstep=4 / cplxblur=20.0 / qblur=0.5 / ip_ratio=1.40 / aq=1:1.00% @$ A/ x6 J  h+ `; V
Language                                 : English
+ Y" e' }" o$ y0 ^  ^; `5 oDefault                                  : Yes( m6 K) U5 u, s. b: {- h
Forced                                   : No
1 H6 k% b1 k6 h6 G3 z! h
2 i  |0 O# |0 Z1 s' ?4 Z" J
0 z6 e, Z7 C! m' ^# k$ e" J# [3 x- X
Audio% V) Q- p( G4 a9 G3 |
ID                                       : 24 S) d% s  s2 Q
Format                                   : DTS! p# e2 W7 v" L
Format/Info                              : Digital Theater Systems6 R, W* ^/ G( S4 a( y9 S
Codec ID                                 : A_DTS
( d- M& ^) B. p* A* ]5 ?6 f4 wDuration                                 : 1 h 17 min0 D, l0 w2 Q4 r$ }2 X* ~
Bit rate mode                            : Constant$ N5 {: m( F$ C
Bit rate                                 : 1 509 kb/s
. T# D) x: `! [. E! F. TChannel(s)                               : 6 channels
* F3 j0 W/ U0 W; UChannel layout                           : C L R Ls Rs LFE
" s' _" a4 ]- @: d& zSampling rate                            : 48.0 kHz# z; e! [, F, i0 G( G0 a: P( r" g
Frame rate                               : 93.750 FPS (512 SPF)0 u9 O* P( \2 i* i4 e( w7 o
Bit depth                                : 24 bits
6 d: e& f6 C, Z% J! |Compression mode                         : Lossy
: g1 }6 [* a! a" `# e" `# L* vStream size                              : 832 MiB (12%)
9 m( |: C& z. E# s: PLanguage                                 : English* q1 c5 T  C7 W) S5 g+ `
Default                                  : Yes$ @0 L( |; ~$ k
Forced                                   : No3 o  S/ `3 f: k$ E

" {. u8 X% W' `* ~' S  Z

) e+ N; B: h8 W/ [; @% t精彩剧照
4 x! H) d& J4 O$ ^& ]( @* `( j$ T- m 贝茨旅馆惊魂记/杀戮鬼屋 The.Bates.Haunting.3D.2012.1080p.BluRay.x264-UNVEiL 6.55GB-1.png
" O# _5 p2 T+ G& \; s5 F& s
0 ^* f. @2 n$ O# b+ ?8 B$ d3 B8 [& g) L6 E; `
蓝光高清网提示您  点击下方附件名称  马上开始下载
- S4 Z! D  s  r# ]- o4 g( m" ?8 b7 @
贝茨旅馆惊魂记/杀戮鬼屋 The.Bates.Haunting.3D.2012.1080p.BluRay.x264-UNVEiL 6.55GB# I4 O5 K3 y- R$ w
The.Bates.Haunting.3D.2012.1080p.BluRay.x264-UNVEiL.torrent 
         (33.5 KB    阅读权限: 20)
回复

使用道具 举报

精彩评论7

雨的承诺 发表于 2020-3-23 18:08:59 | 显示全部楼层
非常感谢蓝光高清网分享的各种知识和资源,祝蓝光高清网越来越好
回复

使用道具 举报

雨的承诺 发表于 2020-3-25 13:08:47 | 显示全部楼层
非常感谢蓝光高清网分享的各种知识和资源,祝蓝光高清网越来越好
回复

使用道具 举报

石牛河2014 发表于 2020-4-9 17:42:40 | 显示全部楼层
非常感谢蓝光高清网分享的各种知识和资源,祝蓝光高清网越来越好
回复

使用道具 举报

雨的承诺 发表于 2020-4-13 14:02:33 | 显示全部楼层
非常感谢蓝光高清网分享的各种知识和资源,祝蓝光高清网越来越好
回复

使用道具 举报

poetlong 发表于 2020-4-14 10:32:36 | 显示全部楼层
3 O9 ]5 _! q+ U( Z& M
非常感谢蓝光高清网给大家的享乐4k,祝蓝光高清网越办越好!
回复

使用道具 举报

1100105610 发表于 2020-4-22 13:04:08 | 显示全部楼层

# F0 I9 t! F: K" {+ k2 @4 \支持蓝光高清网!
回复

使用道具 举报

1100105610 发表于 2020-4-28 08:36:29 | 显示全部楼层
0 G( c) r( K. h/ \
祝蓝光高清网越办越红火。
回复

使用道具 举报

您需要登录后才可以回帖 登录 | 立即注册

本版积分规则

关注0

粉丝0

帖子697

发布主题
最新电影 论坛
本期活动
联系我们
点击这里联系客服

服务时间:
周一到周日8:00-23:30

  • 打开微信扫一扫
    关注公众号

  • 手机QQ扫一扫
    添加客服

手机版蓝光高清网 |网站地图

Powered by Discuz! X3.4  © 2001-2013 Comsenz Inc.