游客您好
第三方账号登陆
  • 客服在线时间

    周一至周五 8:30-17:30
  • 烧友之家APP

    随时掌握烧友资讯

  • 扫描二维码

    关注微信公众号

推荐阅读
蓝鸟
未知星球 | 未知职业
  • 关注0
  • 粉丝2
  • 帖子96539
精选帖子
开启左侧

[悬疑片] 真实故事/真实的故事 True.Story.2014.1080p.BluRay.REMUX.AVC.DTS-HD.MA.5.1-RARBG 28GB

[复制链接]
蓝鸟 发表于 2019-8-20 18:26:56 | 显示全部楼层 |阅读模式 打印 上一主题 下一主题
真实故事/真实的故事 True.Story.2014.1080p.BluRay.REMUX.AVC.DTS-HD.MA.5.1-RARBG 28GB-1.jpg
◎译  名 真实故事/真实的故事(台)
◎片  名 True Story
◎年  代 2015
◎国  家 美国
◎类  别 剧情/悬疑/惊悚
◎语  言 英语
◎上映日期 2015-04-17(美国)
◎IMDb评分  6.5/10 from 5,128 users
◎IMDb链接  http://www.imdb.com/title/tt2273657/
◎豆瓣评分 5.8/10 from 302 users
◎豆瓣链接 http://movie.douban.com/subject/10546665/
◎片  长 99分钟
◎导  演 鲁伯特·古尔德 Rupert Goold
◎主  演 詹姆斯·弗兰科 James Franco
      乔纳·希尔 Jonah Hill
      费莉西蒂·琼斯 Felicity Jones
      玛丽亚·迪齐亚 Maria Dizzia
      伊桑·苏普利 Ethan Suplee
      Conor Kikot
      Charlotte Driscoll
      Stella Rae Payne
      罗伯特·约翰·伯克 Robert John Burke
      Byron Jennings
      格瑞辰·摩尔 Gretchen Mol
      Betty Gilpin
      Seth Barrish
      罗伯特·斯坦顿 Robert Stanton
      Michael Countryman
◎简  介
  杀人犯克里斯蒂安(詹姆斯·弗兰科 James Franco 饰)一直用纽约时报记者麦克(乔纳·希尔 Jonah Hill 饰)的名义过着隐姓埋名的生活,而正当麦克因假新闻被炒鱿鱼时,克里斯蒂安在墨西哥被捕。为了拯救自己的名声,麦克决定前往探监,并试图从这位神秘男子身上挖出真相。 在他穷追不舍的调查之下,揭开了克里斯蒂安真实的一面,包含谋杀、爱情、欺骗、救赎……
Video
ID                                       : 1
Format                                   : AVC
Format/Info                              : Advanced Video Codec
Format profile                           : High@L4.1
Format settings, CABAC                   : Yes
Format settings, ReFrames                : 4 frames
Codec ID                                 : V_MPEG4/ISO/AVC
Duration                                 : 1h 39mn
Bit rate mode                            : Variable
Maximum bit rate                         : 37.0 Mbps
Width                                    : 1 920 pixels
Height                                   : 1 080 pixels
Display aspect ratio                     : 16:9
Frame rate mode                          : Constant
Frame rate                               : 23.976 fps
Color space                              : YUV
Chroma subsampling                       : 4:2:0
Bit depth                                : 8 bits
Scan type                                : Progressive
Title                                    : True.Story.2014.1080p.BluRay.REMUX.AVC.DTS-HD.MA.5.1-RARBG
Language                                 : English
Default                                  : No
Forced                                   : No
Audio #1
ID                                       : 2
Format                                   : DTS
Format/Info                              : Digital Theater Systems
Format profile                           : MA / Core
Mode                                     : 16
Format settings, Endianness              : Big
Codec ID                                 : A_DTS
Duration                                 : 1h 39mn
Bit rate mode                            : Variable
Bit rate                                 : Unknown / 1 509 Kbps
Channel(s)                               : 6 channels
Channel positions                        : Front: L C R, Side: L R, LFE
Sampling rate                            : 48.0 KHz
Bit depth                                : 24 bits
Compression mode                         : Lossless / Lossy
Title                                    : True.Story.2014.1080p.BluRay.REMUX.AVC.DTS-HD.MA.5.1-RARBG
Language                                 : English
Default                                  : Yes
Forced                                   : No
Audio #2
ID                                       : 3
Format                                   : DTS
Format/Info                              : Digital Theater Systems
Mode                                     : 16
Format settings, Endianness              : Big
Codec ID                                 : A_DTS
Duration                                 : 1h 39mn
Bit rate mode                            : Constant
Bit rate                                 : 1 509 Kbps
Channel(s)                               : 6 channels
Channel positions                        : Front: L C R, Side: L R, LFE
Sampling rate                            : 48.0 KHz
Bit depth                                : 24 bits
Compression mode                         : Lossy
Stream size                              : 1.05 GiB (4%)
Title                                    : True.Story.2014.1080p.BluRay.REMUX.AVC.DTS-HD.MA.5.1-RARBG
Language                                 : English
Default                                  : No
Forced                                   : No
Audio #3
ID                                       : 4
Format                                   : AC-3
Format/Info                              : Audio Coding 3
Mode extension                           : CM (complete main)
Format settings, Endianness              : Big
Codec ID                                 : A_AC3
Duration                                 : 1h 39mn
Bit rate mode                            : Constant
Bit rate                                 : 448 Kbps
Channel(s)                               : 6 channels
Channel positions                        : Front: L C R, Side: L R, LFE
Sampling rate                            : 48.0 KHz
Compression mode                         : Lossy
Stream size                              : 319 MiB (1%)
Title                                    : True.Story.2014.1080p.BluRay.REMUX.AVC.DTS-HD.MA.5.1-RARBG
Language                                 : English
Default                                  : No
Forced                                   : No
Audio #4
ID                                       : 5
Format                                   : AC-3
Format/Info                              : Audio Coding 3
Mode extension                           : CM (complete main)
Format settings, Endianness              : Big
Codec ID                                 : A_AC3
Duration                                 : 1h 39mn
Bit rate mode                            : Constant
Bit rate                                 : 448 Kbps
Channel(s)                               : 6 channels
Channel positions                        : Front: L C R, Side: L R, LFE
Sampling rate                            : 48.0 KHz
Compression mode                         : Lossy
Stream size                              : 319 MiB (1%)
Title                                    : True.Story.2014.1080p.BluRay.REMUX.AVC.DTS-HD.MA.5.1-RARBG
Language                                 : Spanish
Default                                  : No
Forced                                   : No
Audio #5
ID                                       : 6
Format                                   : AC-3
Format/Info                              : Audio Coding 3
Mode extension                           : CM (complete main)
Format settings, Endianness              : Big
Codec ID                                 : A_AC3
Duration                                 : 1h 39mn
Bit rate mode                            : Constant
Bit rate                                 : 448 Kbps
Channel(s)                               : 6 channels
Channel positions                        : Front: L C R, Side: L R, LFE
Sampling rate                            : 48.0 KHz
Compression mode                         : Lossy
Stream size                              : 319 MiB (1%)
Title                                    : True.Story.2014.1080p.BluRay.REMUX.AVC.DTS-HD.MA.5.1-RARBG
Language                                 : French
Default                                  : No
Forced                                   : No
Audio #6
ID                                       : 7
Format                                   : AC-3
Format/Info                              : Audio Coding 3
Mode extension                           : CM (complete main)
Format settings, Endianness              : Big
Codec ID                                 : A_AC3
Duration                                 : 1h 39mn
Bit rate mode                            : Constant
Bit rate                                 : 224 Kbps
Channel(s)                               : 2 channels
Channel positions                        : Front: L R
Sampling rate                            : 48.0 KHz
Compression mode                         : Lossy
Stream size                              : 159 MiB (1%)
Title                                    : True.Story.2014.1080p.BluRay.REMUX.AVC.DTS-HD.MA.5.1-RARBG
Language                                 : English
Default                                  : No
Forced                                   : No
Text #1
ID                                       : 8
Format                                   : PGS
Muxing mode                              : zlib
Codec ID                                 : S_HDMV/PGS
Codec ID/Info                            : Picture based subtitle format used on BDs/HD-DVDs
Language                                 : English
Default                                  : No
Forced                                   : No
Text #2
ID                                       : 9
Format                                   : PGS
Muxing mode                              : zlib
Codec ID                                 : S_HDMV/PGS
Codec ID/Info                            : Picture based subtitle format used on BDs/HD-DVDs
Language                                 : Spanish
Default                                  : No
Forced                                   : No
Text #3
ID                                       : 10
Format                                   : PGS
Muxing mode                              : zlib
Codec ID                                 : S_HDMV/PGS
Codec ID/Info                            : Picture based subtitle format used on BDs/HD-DVDs
Language                                 : French
Default                                  : No
Forced                                   : No
Text #4
ID                                       : 11
Format                                   : PGS
Muxing mode                              : zlib
Codec ID                                 : S_HDMV/PGS
Codec ID/Info                            : Picture based subtitle format used on BDs/HD-DVDs
Language                                 : French
Default                                  : No
Forced                                   : No
Menu
00:00:00.000                             : en:Chapter 01
00:04:20.551                             : en:Chapter 02
00:06:41.192                             : en:Chapter 03
00:09:06.212                             : en:Chapter 04
00:13:15.920                             : en:Chapter 05
00:16:38.956                             : en:Chapter 06
00:17:58.911                             : en:Chapter 07
00:19:13.193                             : en:Chapter 08
00:25:32.322                             : en:Chapter 09
00:29:11.124                             : en:Chapter 10
00:32:44.128                             : en:Chapter 11
00:36:53.336                             : en:Chapter 12
00:38:08.661                             : en:Chapter 13
00:39:54.225                             : en:Chapter 14
00:44:28.791                             : en:Chapter 15
00:46:45.302                             : en:Chapter 16
00:49:24.962                             : en:Chapter 17
00:50:57.763                             : en:Chapter 18
00:53:13.982                             : en:Chapter 19
00:58:07.192                             : en:Chapter 20
01:00:57.945                             : en:Chapter 21
01:05:11.282                             : en:Chapter 22
01:07:04.979                             : en:Chapter 23
01:16:57.779                             : en:Chapter 24
01:22:06.379                             : en:Chapter 25
01:25:37.757                             : en:Chapter 26
01:30:48.401                             : en:Chapter 27
01:33:55.671                             : en:Chapter 28

精彩剧照

真实故事/真实的故事 True.Story.2014.1080p.BluRay.REMUX.AVC.DTS-HD.MA.5.1-RARBG 28GB-2.jpg 真实故事/真实的故事 True.Story.2014.1080p.BluRay.REMUX.AVC.DTS-HD.MA.5.1-RARBG 28GB-3.jpg 真实故事/真实的故事 True.Story.2014.1080p.BluRay.REMUX.AVC.DTS-HD.MA.5.1-RARBG 28GB-4.jpg 真实故事/真实的故事 True.Story.2014.1080p.BluRay.REMUX.AVC.DTS-HD.MA.5.1-RARBG 28GB-5.jpg 真实故事/真实的故事 True.Story.2014.1080p.BluRay.REMUX.AVC.DTS-HD.MA.5.1-RARBG 28GB-6.jpg 真实故事/真实的故事 True.Story.2014.1080p.BluRay.REMUX.AVC.DTS-HD.MA.5.1-RARBG 28GB-7.jpg                                                                                 

                                                                                                                                                  


蓝光高清网提示您 点击下方附件名称 马上开始下载

True.Story.2014.1080p.BluRay.REMUX.AVC.DTS-HD.MA.5.1-RARBG.torrent (大小:71.92 KB)

加入蓝光高清网VIP会员  无限制下载本站所有资源---点这里

资源下载、资源播放、字幕使用、无法下载等常见问题---点这里
回复

使用道具 举报

您需要登录后才可以回帖 登录 | 立即注册

本版积分规则

烧友之家(蓝光高清网)本站内容部分由用户自主分享和转载自互联网,转载目的在于传递更多信息,并不代表本网赞同其观点和对其真实性负责。 如有侵权、违反国家法律政策行为,请联系我们,我们会第一时间及时清除和处理!
关注我们
  • 官方微信公众号
  • 扫码下载官方APP

X3.4 Licensed© 2001-2013 蓝光高清网 烧友之家APP |网站地图