[剧情] 世界的荣光 Gloria.Mundi.1976.1080p.BluRay.x264-BiPOLAR 10.93GB

[复制链接]
蓝鸟 发表于 2020-3-30 23:38:06 | 显示全部楼层 |阅读模式 打印 上一主题 下一主题

世界的荣光 Gloria.Mundi.1976.1080p.BluRay.x264-BiPOLAR 10.93GB

世界的荣光 Gloria.Mundi.1976.1080p.BluRay.x264-BiPOLAR 10.93GB


译  名 世界的荣光 / In Hell / Tortura / 凯莱蒙迪
片  名 Gloria mundi
年  代 1976
产  地 法国
类  别 剧情
语  言 法语
上映日期 1976
IMDb评分  6.4/10 from 94 users
IMDb链接  https://www.imdb.com/title/tt0219058
豆瓣评分 0/10 from 0 users
豆瓣链接 https://movie.douban.com/subject/5084724/
片  长 130 分钟
导  演 Nikos Papatakis
主  演 Olga Karlatos


标  签 法国 | 情色 | 法国电影 | NikosPapatakis | 裸裸更健康 | 暴力 | 无字幕 | 剧场

简  介  

  The niche market DVD label Mondo Macabro has released a little-known 1976 film titled In Hell, known variously as La tortura and Gloria Mundi. The movie is the creation of the late Greek director Nikos Papatakis, who obviously felt he had a significant left-wing political statement to make in this bizarre and unpleasant blending of radicalism and sexual humiliation. The film"s one saving grace is an astonishingly brave performance by lead actress Olga Karlatos, who we are introduced to in a provocative, if cringe-inducing sequence in which we observe her sitting in a bathtub and attaching electrical wires to her nipples and genitals then torturing herself by turning on the current. Why is she doing this? It seems that her character, Galai, is an attractive young Algerian immigrant living in Paris. She has fallen under the spell of a mysterious and unseen political anarchist named Hamdias, who wants to wreak havoc against French colonialism in Algeria. This is to be achieved through terrorist acts that he is grooming Galai to carry out via instructions on the phone and cassette tapes. He also fancies himself an important filmmaker and is trying to raise funds for a political thriller starring Galai in the leading role. The film runs into the usual dilemma that real life independent producers must endure: the funding keeps running out but Galai becomes obsessed with ensuring that the movie is completed. Hamidias envisions incorporating perverse sexual abuse into the story line and he finds a willing leading lady in Galai, who enthusiastically submits herself to self-imposed "training sessions" in which she performs torture on her own body, all the better to please her producer/director/lover by giving the most genuine performance possible. The graphic opening sequence of this abuse is difficult to watch but the film quickly delves into a virtually incomprehensible look at the psychological tortures Galai is facing. Seems that Hamdias enjoys playing head games with her psyche and issuing increasingly dangerous demands including carrying out dry runs for terrorist bombings. She constantly vents to herself about her disdain for him, but it becomes clear that not only is she completely submissive to his whims, he is also holding their child as a virtual hostage to ensure she carries out his demands. That"s about all I could ascertain from the confusing story line which at times is completely incomprehensible. There are films within films, sarcastic scenes that denounce the French elite and occasional sequences in which Galai is subjected to sexual abuse at the hands of military captor. There is abundant full female nudity but none of it is presented in an erotic manner and in one particularly awful scene one of Galai"s would-be lovers vomits on her bare chest.
  Papatakis might have thought he was making a poignant political statement but he comes across as a bargain basement imitation of Costas-Gavras. In fact, one suspects that all he really wanted to do was make a dirty movie but provided himself with a pseudo intellectual cover. (In one prolonged film-within-a-film sequence, a despicable French military officer engages a prostitute to engage in bizarre practices that include using a rather difficult and innovative method of opening champagne bottles.)
  By Lee Pfeiffer -cinemaretro.com-


该资源信息参数
  1. Video
  2. ID                                       : 1
  3. Format                                   : AVC
  4. Format/Info                              : Advanced Video Codec
  5. Format profile                           : High@L4
  6. Format settings                          : CABAC / 4 Ref Frames
  7. Format settings, CABAC                   : Yes
  8. Format settings, Reference frames        : 4 frames
  9. Codec ID                                 : V_MPEG4/ISO/AVC
  10. Duration                                 : 1 h 56 min
  11. Bit rate                                 : 12.7 Mb/s
  12. Width                                    : 1 792 pixels
  13. Height                                   : 1 080 pixels
  14. Display aspect ratio                     : 5:3
  15. Frame rate mode                          : Constant
  16. Frame rate                               : 24.000 FPS
  17. Color space                              : YUV
  18. Chroma subsampling                       : 4:2:0
  19. Bit depth                                : 8 bits
  20. Scan type                                : Progressive
  21. Bits/(Pixel*Frame)                       : 0.273
  22. Stream size                              : 10.3 GiB (94%)
  23. Writing library                          : x264 core 159 r2991 1771b55
  24. Encoding settings                        : cabac=1 / ref=4 / deblock=1:-3:-3 / analyse=0x3:0x133 / me=umh / subme=9 / psy=1 / psy_rd=1.00:0.00 / mixed_ref=1 / me_range=16 / chroma_me=1 / trellis=2 / 8x8dct=1 / cqm=0 / deadzone=21,11 / fast_pskip=0 / chroma_qp_offset=-2 / threads=18 / lookahead_threads=1 / sliced_threads=0 / nr=0 / decimate=1 / interlaced=0 / bluray_compat=0 / constrained_intra=0 / bframes=3 / b_pyramid=2 / b_adapt=1 / b_bias=0 / direct=3 / weightb=1 / open_gop=0 / weightp=2 / keyint=240 / keyint_min=24 / scenecut=40 / intra_refresh=0 / rc_lookahead=50 / rc=2pass / mbtree=1 / bitrate=12686 / ratetol=1.0 / qcomp=0.60 / qpmin=0 / qpmax=69 / qpstep=4 / cplxblur=20.0 / qblur=0.5 / ip_ratio=1.40 / aq=1:1.00
  25. Language                                 : English
  26. Default                                  : Yes
  27. Forced                                   : No

  28. Audio
  29. ID                                       : 2
  30. Format                                   : DTS
  31. Format/Info                              : Digital Theater Systems
  32. Codec ID                                 : A_DTS
  33. Duration                                 : 1 h 56 min
  34. Bit rate mode                            : Constant
  35. Bit rate                                 : 768 kb/s
  36. Channel(s)                               : 2 channels
  37. Channel layout                           : L R
  38. Sampling rate                            : 48.0 kHz
  39. Frame rate                               : 93.750 FPS (512 SPF)
  40. Bit depth                                : 24 bits
  41. Compression mode                         : Lossy
  42. Stream size                              : 639 MiB (6%)
  43. Language                                 : French
  44. Default                                  : Yes
  45. Forced                                   : No

  46. Text #1
  47. ID                                       : 3
  48. Format                                   : UTF-8
  49. Codec ID                                 : S_TEXT/UTF8
  50. Codec ID/Info                            : UTF-8 Plain Text
  51. Duration                                 : 1 h 55 min
  52. Bit rate                                 : 37 b/s
  53. Count of elements                        : 1200
  54. Stream size                              : 31.4 KiB (0%)
  55. Title                                    : English
  56. Language                                 : English
  57. Default                                  : Yes
  58. Forced                                   : Yes

  59. Text #2
  60. ID                                       : 4
  61. Format                                   : UTF-8
  62. Codec ID                                 : S_TEXT/UTF8
  63. Codec ID/Info                            : UTF-8 Plain Text
  64. Duration                                 : 1 h 56 min
  65. Bit rate                                 : 44 b/s
  66. Count of elements                        : 1415
  67. Stream size                              : 37.9 KiB (0%)
  68. Title                                    : French SDH
  69. Language                                 : French
  70. Default                                  : No
  71. Forced                                   : No

  72. Menu
  73. 00:00:00.000                             : en:00:00:00.000
  74. 00:10:45.875                             : en:00:10:45.875
  75. 00:15:50.042                             : en:00:15:50.042
  76. 00:26:54.750                             : en:00:26:54.750
  77. 00:39:52.458                             : en:00:39:52.458
  78. 00:50:15.250                             : en:00:50:15.250
  79. 00:57:24.125                             : en:00:57:24.125
  80. 01:09:53.250                             : en:01:09:53.250
  81. 01:19:26.417                             : en:01:19:26.417
  82. 01:30:15.375                             : en:01:30:15.375
  83. 01:38:38.458                             : en:01:38:38.458
  84. 01:45:24.833                             : en:01:45:24.833
复制代码


精彩剧照

世界的荣光 Gloria.Mundi.1976.1080p.BluRay.x264-BiPOLAR 10.93GB

世界的荣光 Gloria.Mundi.1976.1080p.BluRay.x264-BiPOLAR 10.93GB



蓝光高清网提示您 点击下方附件名称 马上开始下载

世界的荣光 Gloria.Mundi.1976.1080p.BluRay.x264-BiPOLAR 10.93GB
Gloria.Mundi.1976.1080p.BluRay.x264-BiPOLAR.torrent 
         (55.47 KB    阅读权限: 0)
加入蓝光高清网VIP会员  无限制下载本站所有资源---点这里

资源下载、资源播放、字幕使用、无法下载等常见问题---点这里
回复

使用道具 举报

精彩评论1

yusong 发表于 2020-4-3 23:03:52 | 显示全部楼层

身体健康,天天开心,祝蓝光高清网越办越红火
回复

使用道具 举报

您需要登录后才可以回帖 登录 | 立即注册

本版积分规则

关注0

粉丝1

帖子82503

发布主题
最新电影 论坛
本期活动
联系我们
点击这里联系客服

服务时间:
周一到周日8:00-23:30

  • 打开微信扫一扫
    关注公众号

  • 手机QQ扫一扫
    添加客服

手机版蓝光高清网 ( 渝ICP备18006373号-2 )|网站地图

Powered by Discuz! X3.4  © 2001-2013 Comsenz Inc.