归途
sbs 
7.2
  • 年代: 2020年
  • 国家/地区: 美国
  • 类型: 动画 儿童 家庭 
  • 导演: Michael Johnson
  • 音轨: DTS-HD.MA 5.1 
  • 时长: 90分钟
  • 主演:D.C.道格拉斯 / Kim Little / Tammy Klein
特别声明:本站提供的所有高清电影作品均是在网上搜集,任何涉及商业盈利目的均不得使用,否则产生的一切后果将由您自己承担!本站将不对本站的任何内容负任何法律责任!该下载内容仅做宽带测试使用,请在下载后24小时内删除。请购买正版! 本站所有资源均由网上收集而来,版权归原影音公司所有,如果侵犯了你的权益,请通知我们,我们会及时删除侵权内容.

归途 Homeward.3D.2020.1080p.BluRay.x264-UNVEiL 6.55GB

[复制链接]
蓝鸟 发表于 2020-4-24 11:52:55 | 显示全部楼层 |阅读模式 打印 上一主题 下一主题
本帖最后由 蓝鸟 于 2020-4-24 11:54 编辑
. ]  p* ?8 [; ?+ `3 G) I! Q
& I0 Q6 z2 L: r  O7 H 简  介
% L5 Z% _( _4 q# H+ k
- Q0 X* z7 V7 g1 ^: }+ Q  A boastful elf and his prank-happy orc brother must learn to work together to stop a fiendish orc gang from retrieving a magical stone that will give them the power to take over the world.
2 x+ {% M( S% `$ U9 Y, j( [& K6 q6 r* f- S
影片参数
$ u7 }" G! y3 @2 {- B1 U9 o
  l2 v: t% t- f- t( O* Z+ u# mID                                       : 14 u5 u0 B6 X8 e: f+ p
Format                                   : AVC$ f1 \7 B# M3 F
Format/Info                              : Advanced Video Codec  {& ~. O  L3 D9 x
Format profile                           : High@L4
- J1 L: `( V- l( I' WFormat settings                          : CABAC / 5 Ref Frames
% j* l+ I$ c0 _: J) m2 sFormat settings, CABAC                   : Yes& `7 A- ]+ I8 |/ a
Format settings, Reference frames        : 5 frames2 }% H' t& p  _0 ?# `& }
Codec ID                                 : V_MPEG4/ISO/AVC: r1 K$ e* P7 v! @6 u
Duration                                 : 1 h 20 min
+ }$ e  Z1 w. V- ~4 `Bit rate                                 : 10.1 Mb/s
( [" n3 y9 \: x' x/ PWidth                                    : 1 920 pixels
! Z  W, d# g2 a9 M0 v6 RHeight                                   : 816 pixels
. G, ~8 Z, C% ]) V& l% Z& `Display aspect ratio                     : 2.35:1& D, l) Z; O; @4 y% C6 N/ k
Frame rate mode                          : Constant
- O; X. F; g6 ^( d9 f- RFrame rate                               : 23.976 FPS
3 b1 c+ M6 l+ j, i( @6 [2 e- RColor space                              : YUV' x  N- N( ^6 Q2 `4 M. ?
Chroma subsampling                       : 4:2:0
1 W! T/ d4 b4 y" g& l+ r1 O  iBit depth                                : 8 bits
+ K! n7 v& _! N# t; kScan type                                : Progressive
; a& q1 F' Y4 `& \4 g0 \5 _Bits/(Pixel*Frame)                       : 0.269& L% [0 Y% j1 q& d
Stream size                              : 5.57 GiB (85%)
7 g& Y$ p3 ?+ v% o* a& F& RWriting library                          : x264 core 158 r2988 7817004
% [8 k, W" F! p6 VEncoding settings                        : cabac=1 / ref=5 / deblock=1:-3:-3 / analyse=0x3:0x133 / me=umh / subme=8 / psy=1 / psy_rd=1.00:0.15 / mixed_ref=1 / me_range=16 / chroma_me=1 / trellis=2 / 8x8dct=1 / cqm=0 / deadzone=21,11 / fast_pskip=0 / chroma_qp_offset=-3 / threads=25 / lookahead_threads=4 / sliced_threads=0 / nr=0 / decimate=1 / interlaced=0 / bluray_compat=0 / constrained_intra=0 / bframes=3 / b_pyramid=2 / b_adapt=2 / b_bias=0 / direct=3 / weightb=1 / open_gop=0 / weightp=2 / keyint=240 / keyint_min=24 / scenecut=40 / intra_refresh=0 / rc_lookahead=50 / rc=2pass / mbtree=1 / bitrate=10095 / ratetol=1.0 / qcomp=0.60 / qpmin=0 / qpmax=69 / qpstep=4 / cplxblur=20.0 / qblur=0.5 / ip_ratio=1.40 / aq=1:1.00
- Y2 v; j; {& }Language                                 : English
' D$ U7 k: j6 S0 P# ~Default                                  : Yes
5 }3 {. E$ j# i# ]: w2 ]- Z0 NForced                                   : No- k$ ?" \+ {. x' q7 o: @
- p6 X+ o$ ^( z, O4 h, y! \# e3 Y

6 B+ N) V6 R! @, Z/ F8 {- vAudio
! T* I1 I+ l$ V. U' k- tID                                       : 2
: N" ?2 o% d" p* G3 eFormat                                   : DTS
3 v: w/ p7 k" h" o( @Format/Info                              : Digital Theater Systems  B" b! P- a  P1 f  l. k
Codec ID                                 : A_DTS
+ u! U! ^4 p: Q$ q7 KDuration                                 : 1 h 20 min
, W5 d) {' f9 S0 T( s/ d& wBit rate mode                            : Constant2 i. P9 {" [$ {' O1 B" z
Bit rate                                 : 1 509 kb/s
7 P8 z3 @7 y( w0 r8 r) h7 }! nChannel(s)                               : 6 channels
% v. N. W" k/ o2 a+ l$ AChannel layout                           : C L R Ls Rs LFE2 ~/ n  I  I+ Y) I1 [
Sampling rate                            : 48.0 kHz
5 O: B& p+ l* R7 B/ ZFrame rate                               : 93.750 FPS (512 SPF)1 ^; N3 I1 [* [- R2 m& |
Bit depth                                : 24 bits1 ~0 k- m; K: [/ d( X$ [% d' C
Compression mode                         : Lossy& {5 t7 h% m  C% N$ p* N/ k
Stream size                              : 870 MiB (13%)
6 c. c: h( e% ?6 CLanguage                                 : English
( q/ H- B% v! u& e- ]/ n; NDefault                                  : Yes# {8 h' v) G6 d" i* G( {' ?! a" X
Forced                                   : No
0 W& X" q; d8 j0 p5 I$ d- t! }& O) ], c. a/ c+ W& h' f% M

- J* L0 ~6 \; E( fMenu
" r) C5 j1 e* u$ C# v00:00:00.000                             : en:00:00:00.000# \5 k: w/ U/ m0 P0 z
00:10:00.600                             : en:00:10:00.600
$ z9 R: {4 ~: V6 V0 M00:20:01.200                             : en:00:20:01.200
; K& V1 h. ?; K" L8 a. _) w7 r; l00:30:01.800                             : en:00:30:01.800
1 b& O; h( u6 u, n00:40:02.400                             : en:00:40:02.400. m% u% S& K: ]  v( e
00:50:03.000                             : en:00:50:03.000
8 n- \9 \1 o% L1 [% n- A01:00:03.600                             : en:01:00:03.600
( z) L# ~( b1 F1 _01:10:04.200                             : en:01:10:04.2002 l( _% c- Y0 q% L0 Z

2 {* B/ ~* F* Z/ h4 ]2 w8 l
) I' k! W. W! t# J精彩剧照
/ [3 H7 R" i( `9 \% e
3 |+ B5 U/ q# S- Z6 H

归途 Homeward.3D.2020.1080p.BluRay.x264-UNVEiL 6.55GB

归途 Homeward.3D.2020.1080p.BluRay.x264-UNVEiL 6.55GB

) f5 ~$ h7 ~- B9 A$ h3 B) p2 m/ b' _: c0 T( F, Q
) H& [2 V  Z5 k# @" o/ [
蓝光高清网提示您  点击下方附件名称  马上开始下载* O( c$ [! N  g" l! n7 I1 }7 T

9 B% O9 e4 y" \( W; s1 S归途 Homeward.3D.2020.1080p.BluRay.x264-UNVEiL 6.55GB6 Q) j  q  M! u% _" D4 Z' k; e! U
Homeward.3D.2020.1080p.BluRay.x264-UNVEiL.torrent 
         (33.44 KB    阅读权限: 20)
加入蓝光高清网VIP会员  无限制下载本站所有资源---点这里

资源下载、资源播放、字幕使用、无法下载等常见问题---点这里
回复

使用道具 举报

精彩评论10

1100105610 发表于 2020-4-24 18:36:10 | 显示全部楼层
' X3 f9 A  |+ D. _+ ]2 i
支持蓝光高清网!
回复

使用道具 举报

石牛河2014 发表于 2020-4-26 11:14:10 | 显示全部楼层

# g" O* C4 D+ U: K6 Y" s1 x非常感谢蓝光高清网给大家的享乐4k,祝蓝光高清网越办越好!
回复

使用道具 举报

雨的承诺 发表于 2020-4-27 09:24:23 | 显示全部楼层
非常感谢蓝光高清网分享的各种知识和资源,祝蓝光高清网越来越好
回复

使用道具 举报

knight001zf 发表于 2020-4-27 18:16:10 | 显示全部楼层
, Y/ |5 P1 W5 U+ t+ d+ Z$ v
非常感谢蓝光高清网给大家的享乐4k,祝蓝光高清网越办越好!
回复

使用道具 举报

百会 发表于 2020-4-30 09:51:48 | 显示全部楼层
非常感谢蓝光高清网分享的各种知识和资源,祝蓝光高清网越来越好
回复

使用道具 举报

百会 发表于 2020-4-30 22:05:11 | 显示全部楼层
非常感谢蓝光高清网分享的各种知识和资源,祝蓝光高清网越来越好
回复

使用道具 举报

帅小子 发表于 2020-5-2 00:25:22 | 显示全部楼层
9 G7 V2 Q! H  F8 J0 W; m$ M% C; ^
祝大家身体健康,团结一致,抗击疫情
回复

使用道具 举报

石牛河2014 发表于 2020-5-11 22:33:44 | 显示全部楼层

# g. F: |+ ]* ^6 P% r. F支持蓝光高清网!
回复

使用道具 举报

mt2356168 发表于 2020-6-19 21:03:45 | 显示全部楼层

  d( Y1 N. s2 c5 k/ ^! O8 u支持蓝光高清网!
回复

使用道具 举报

您需要登录后才可以回帖 登录 | 立即注册

本版积分规则

关注0

粉丝1

帖子83757

发布主题
最新电影 论坛
本期活动
联系我们
点击这里联系客服

服务时间:
周一到周日8:00-23:30

  • 打开微信扫一扫
    关注公众号

  • 手机QQ扫一扫
    添加客服

手机版蓝光高清网 |网站地图

Powered by Discuz! X3.4  © 2001-2013 Comsenz Inc.