归途
sbs 
7.2
  • 年代: 2020年
  • 国家/地区: 美国
  • 类型: 动画 儿童 家庭 
  • 导演: Michael Johnson
  • 音轨: DTS-HD.MA 5.1 
  • 时长: 90分钟
  • 主演:D.C.道格拉斯 / Kim Little / Tammy Klein
特别声明:本站提供的所有高清电影作品均是在网上搜集,任何涉及商业盈利目的均不得使用,否则产生的一切后果将由您自己承担!本站将不对本站的任何内容负任何法律责任!该下载内容仅做宽带测试使用,请在下载后24小时内删除。请购买正版! 本站所有资源均由网上收集而来,版权归原影音公司所有,如果侵犯了你的权益,请通知我们,我们会及时删除侵权内容.

归途 Homeward.3D.2020.1080p.BluRay.x264-UNVEiL 6.55GB

[复制链接]
蓝鸟 发表于 2020-4-24 11:52:55 | 显示全部楼层 |阅读模式 打印 上一主题 下一主题
本帖最后由 蓝鸟 于 2020-4-24 11:54 编辑 ; F1 Z, ], N( D

* q7 j1 r7 p* R1 Z3 {0 ]9 U2 R& K1 b 简  介
" N) u7 g4 I9 J8 b9 K+ ]
  k4 r( `1 z0 A& }- y) k; G  A boastful elf and his prank-happy orc brother must learn to work together to stop a fiendish orc gang from retrieving a magical stone that will give them the power to take over the world." T7 I3 R2 c- y4 ]  ^: l8 ]
0 u6 C, F: f# w
影片参数
" L4 W. Q/ V0 `; A
4 v9 x1 L! [& @ID                                       : 1
5 z8 V& w6 m8 ^7 FFormat                                   : AVC: M/ E) I0 ]; p( U" q0 P8 K5 s
Format/Info                              : Advanced Video Codec* e: Q& R4 H# W: y: A
Format profile                           : High@L4! y2 [3 t# }4 k5 ?8 ], U0 l
Format settings                          : CABAC / 5 Ref Frames* `4 P% o9 R, d) A- K7 Q9 i: T
Format settings, CABAC                   : Yes
( a- g( v- B$ S( b' B$ C5 W$ Z* H9 AFormat settings, Reference frames        : 5 frames; S/ a. g3 L8 Q' Z$ m4 D3 w
Codec ID                                 : V_MPEG4/ISO/AVC
% K  N) S: R! U/ aDuration                                 : 1 h 20 min6 C( `# _& a' G, P4 e4 N. o. m
Bit rate                                 : 10.1 Mb/s0 j* w5 D; U+ j3 e* @+ B
Width                                    : 1 920 pixels8 T3 M( t& J( a$ E. J
Height                                   : 816 pixels
5 M* ^8 m+ p: s0 F6 f) jDisplay aspect ratio                     : 2.35:11 I& K7 b# S2 B
Frame rate mode                          : Constant. v9 k! Q( b, N2 c1 b/ K
Frame rate                               : 23.976 FPS
+ g9 Y: F* N) j2 ~, V8 S+ i1 @. sColor space                              : YUV
. V3 D2 [* |, I; f6 X' b$ c6 W1 pChroma subsampling                       : 4:2:0
1 z5 {5 K; O* l9 |4 g$ sBit depth                                : 8 bits
% `: ~4 o/ S  _Scan type                                : Progressive
( ^% ?! U4 x) yBits/(Pixel*Frame)                       : 0.269" O6 G7 \# J+ W/ G, C, N
Stream size                              : 5.57 GiB (85%)
/ w4 G2 c2 ~3 j0 n; s" {: YWriting library                          : x264 core 158 r2988 7817004
/ y  Q; z7 w+ Y. E' D# @9 g# EEncoding settings                        : cabac=1 / ref=5 / deblock=1:-3:-3 / analyse=0x3:0x133 / me=umh / subme=8 / psy=1 / psy_rd=1.00:0.15 / mixed_ref=1 / me_range=16 / chroma_me=1 / trellis=2 / 8x8dct=1 / cqm=0 / deadzone=21,11 / fast_pskip=0 / chroma_qp_offset=-3 / threads=25 / lookahead_threads=4 / sliced_threads=0 / nr=0 / decimate=1 / interlaced=0 / bluray_compat=0 / constrained_intra=0 / bframes=3 / b_pyramid=2 / b_adapt=2 / b_bias=0 / direct=3 / weightb=1 / open_gop=0 / weightp=2 / keyint=240 / keyint_min=24 / scenecut=40 / intra_refresh=0 / rc_lookahead=50 / rc=2pass / mbtree=1 / bitrate=10095 / ratetol=1.0 / qcomp=0.60 / qpmin=0 / qpmax=69 / qpstep=4 / cplxblur=20.0 / qblur=0.5 / ip_ratio=1.40 / aq=1:1.00$ i2 D, L& |3 R2 m( U
Language                                 : English
. S# b. o( h) U  rDefault                                  : Yes  F' _) x# |8 k
Forced                                   : No
- F2 q" j# b, i$ N/ a# Z$ z& S) K8 B) {+ x5 Q

9 k; L8 f& y5 _2 |( g9 k, sAudio- |6 }+ N! c1 V7 ^
ID                                       : 20 e' L: u, W3 w+ Q' M( t
Format                                   : DTS
$ j  }7 G0 i9 j+ @" G1 ZFormat/Info                              : Digital Theater Systems
1 k/ Z( N- |9 z' e% m4 a; XCodec ID                                 : A_DTS* L/ ?9 D: L2 h& t: G9 Z
Duration                                 : 1 h 20 min
4 T' g& F. i2 L4 R) |! qBit rate mode                            : Constant3 K# N* E6 [# l4 r
Bit rate                                 : 1 509 kb/s/ B/ I- w* z0 k- M* T$ i  K5 B+ y: {" r1 [
Channel(s)                               : 6 channels- g8 @7 i/ A8 i9 C
Channel layout                           : C L R Ls Rs LFE2 A% t1 ^0 @$ |, P; D5 y5 B2 k
Sampling rate                            : 48.0 kHz
5 |$ C  m% Z6 K0 nFrame rate                               : 93.750 FPS (512 SPF), P3 Y" n7 D) W4 Z* h
Bit depth                                : 24 bits
( P8 I) M$ }( U, F0 }Compression mode                         : Lossy$ U4 \" z( n% O& j& K; Q
Stream size                              : 870 MiB (13%)
* C' m+ j" @; C' sLanguage                                 : English( d! z- L6 q4 f8 |! n
Default                                  : Yes/ w9 z7 \4 X' Z3 w, {
Forced                                   : No
2 U( u" E+ E3 a* [8 n/ v5 J5 F/ y6 c9 W+ ?( e4 W6 G

( o% [& ^3 c: K- ^: E. h3 }: BMenu" S/ J, U4 S' u  ]* e( V
00:00:00.000                             : en:00:00:00.0006 n) l5 E; b: ^, I; i' {" r. F, [' m
00:10:00.600                             : en:00:10:00.600
- g) c$ G# v- d, Y00:20:01.200                             : en:00:20:01.2007 t9 t$ \  w$ s, }# m
00:30:01.800                             : en:00:30:01.800
/ D4 {, |2 W1 T4 ^) h9 P00:40:02.400                             : en:00:40:02.4008 F- S5 o7 n; B4 E8 ~# \6 u
00:50:03.000                             : en:00:50:03.000  w* t+ N( e; ~: Q; R  B  s
01:00:03.600                             : en:01:00:03.600* Q3 J0 c9 A& t, C2 S, j/ O" r
01:10:04.200                             : en:01:10:04.200% O1 U$ K! Z6 B# i) q$ w/ B( l
; X" S4 P* Z: j1 d/ S
' O6 }% w- r1 g
精彩剧照) |* b7 ]+ z2 _! v- H: J3 I

' N7 y$ f$ t' w, @# i/ [3 W9 r

归途 Homeward.3D.2020.1080p.BluRay.x264-UNVEiL 6.55GB

归途 Homeward.3D.2020.1080p.BluRay.x264-UNVEiL 6.55GB
- T* a* K8 j+ W+ h. _$ s. g8 I/ B3 i+ I

8 ]1 l. [! d" |! o. N4 M
+ M1 e1 x" p. q* @/ i蓝光高清网提示您  点击下方附件名称  马上开始下载
2 Z2 X; [) R! X. O5 h& q
6 C( [& L& H0 m9 ]归途 Homeward.3D.2020.1080p.BluRay.x264-UNVEiL 6.55GB
- J) a1 M" x; H7 _/ Q Homeward.3D.2020.1080p.BluRay.x264-UNVEiL.torrent 
         (33.44 KB    阅读权限: 20)
加入蓝光高清网VIP会员  无限制下载本站所有资源---点这里

资源下载、资源播放、字幕使用、无法下载等常见问题---点这里
回复

使用道具 举报

精彩评论16

1100105610 发表于 2020-4-24 18:36:10 | 显示全部楼层
, T7 S7 P7 e- q+ k- F
支持蓝光高清网!
回复

使用道具 举报

石牛河2014 发表于 2020-4-26 11:14:10 | 显示全部楼层

0 g7 T' y0 J% g3 d5 @非常感谢蓝光高清网给大家的享乐4k,祝蓝光高清网越办越好!
回复

使用道具 举报

雨的承诺 发表于 2020-4-27 09:24:23 | 显示全部楼层
非常感谢蓝光高清网分享的各种知识和资源,祝蓝光高清网越来越好
回复

使用道具 举报

knight001zf 发表于 2020-4-27 18:16:10 | 显示全部楼层

" w4 }$ W" j  U. d非常感谢蓝光高清网给大家的享乐4k,祝蓝光高清网越办越好!
回复

使用道具 举报

百会 发表于 2020-4-30 09:51:48 | 显示全部楼层
非常感谢蓝光高清网分享的各种知识和资源,祝蓝光高清网越来越好
回复

使用道具 举报

百会 发表于 2020-4-30 22:05:11 | 显示全部楼层
非常感谢蓝光高清网分享的各种知识和资源,祝蓝光高清网越来越好
回复

使用道具 举报

帅小子 发表于 2020-5-2 00:25:22 | 显示全部楼层

2 ]% w3 V& I+ O% P- u# I! J) I祝大家身体健康,团结一致,抗击疫情
回复

使用道具 举报

石牛河2014 发表于 2020-5-11 22:33:44 | 显示全部楼层

- p& _$ ^# d- g  a支持蓝光高清网!
回复

使用道具 举报

mt2356168 发表于 2020-6-19 21:03:45 | 显示全部楼层
! {8 A$ J/ c' {/ E
支持蓝光高清网!
回复

使用道具 举报

您需要登录后才可以回帖 登录 | 立即注册

本版积分规则

关注0

粉丝1

帖子88157

发布主题
最新电影 论坛
本期活动
联系我们
点击这里联系客服

服务时间:
周一到周日8:00-23:30

  • 打开微信扫一扫
    关注公众号

  • 手机QQ扫一扫
    添加客服

手机版蓝光高清网 |网站地图

Powered by Discuz! X3.4 Licensed  © 2001-2013 Comsenz Inc.