朱朱宠物
sbs 
4.2
  • 年代: 2011年
  • 国家/地区: 美国
  • 类型: 剧情 动画 
  • 导演: Bob Doucette
  • 音轨: DTS-HD.MA 5.1 
  • 时长: 72分钟
  • 主演:
特别声明:本站提供的所有高清电影作品均是在网上搜集,任何涉及商业盈利目的均不得使用,否则产生的一切后果将由您自己承担!本站将不对本站的任何内容负任何法律责任!该下载内容仅做宽带测试使用,请在下载后24小时内删除。请购买正版! 本站所有资源均由网上收集而来,版权归原影音公司所有,如果侵犯了你的权益,请通知我们,我们会及时删除侵权内容.

朱朱宠物 Quest.for.Zhu.2011.3D.1080p.BluRay.x264-GUACAMOLE 5.47GB

[复制链接]
蓝鸟 发表于 2020-4-24 11:56:40 | 显示全部楼层 |阅读模式 打印 上一主题 下一主题
简  介  
# D' E! p2 y* D
6 t% p& b0 E& \1 P  这是一个温馨的故事。四个充满活力的小动物(仓鼠)应邀去寻找朱朱宫殿。他们相信他们梦想在那儿会得到实现。被卷到朱朱世界的活泼可爱的点点也加入了探险队伍。在她的冒险旅途中,她朋友般的照顾小胖,囡囡和弯弯。- J5 ^: X7 G! Z; y6 V0 Z9 q
  当他们到达朱朱宫殿的时候,他们意识到这只是他们伟大旅行的开始。卑鄙的,有控制欲的爬行动物——蛇妖想要阻止他们实现梦想。但是他们同心协力,他们——朱朱英雄拯救了世界!点点意识到她已经拥有了她梦想的一切,而她真正想要的就是回家。; `& H0 u& s. @7 B1 X
, j8 Z0 X' F& y6 M8 s
2 j: Z7 N% o- Q8 V/ K
影片参数2 _# y: ^- j# o- b+ t# s( [
Video
  {4 s! W" d2 C8 r, I. S8 O# i: tID                                       : 1
* t$ ?0 X( Y; B! S2 }0 ?Format                                   : AVC
8 Y, c5 ]9 E! K( N8 RFormat/Info                              : Advanced Video Codec
" F8 H! D# f$ y3 JFormat profile                           : High@L48 t+ I% M5 m% R$ I3 L3 T  B$ k
Format settings                          : CABAC / 4 Ref Frames7 J. M) e& L- q8 D2 j$ ?2 d/ b5 G
Format settings, CABAC                   : Yes9 m8 z) q1 W7 _8 x+ r' y/ C) d+ A6 a
Format settings, Reference frames        : 4 frames/ Q9 G' Z9 d6 m3 r: b
Codec ID                                 : V_MPEG4/ISO/AVC7 c2 n$ l) K! ?7 j: A3 F3 y
Duration                                 : 1 h 12 min: f, C' f7 ^, Q
Bit rate                                 : 9 215 kb/s
1 O$ a1 J0 [% K$ {Width                                    : 1 920 pixels
8 C# Q: M" P& c) s# g/ y  \! T# HHeight                                   : 1 080 pixels! j; `( W: t' U, A- M) m% {1 A
Display aspect ratio                     : 16:9
7 g+ s! V# l; P+ o/ F5 }Frame rate mode                          : Constant
0 f- v+ R7 j0 @3 B0 o1 o+ b7 CFrame rate                               : 23.976 FPS
# H' H3 G, ?7 V: l% ~- Q+ ^7 RColor space                              : YUV
4 e3 @2 r3 v5 ]6 L' Q* l  A( V. eChroma subsampling                       : 4:2:0
4 N! s3 T$ F. v, f& v, DBit depth                                : 8 bits
+ k5 v" Y% E, o# T" z" }. e& \Scan type                                : Progressive0 k) U# I' z* W( p/ M- ?. f, P
Bits/(Pixel*Frame)                       : 0.185
* V" O7 X# X9 ^' `; [+ sStream size                              : 4.70 GiB (86%)
. u1 U' K6 z! u& \7 f' d7 NWriting library                          : x264 core 159 r2991 1771b55
( K) i' v+ ]& |) z+ g: Z8 aEncoding settings                        : cabac=1 / ref=4 / deblock=1:-1:-1 / analyse=0x3:0x113 / me=umh / subme=8 / psy=1 / psy_rd=1.00:0.00 / mixed_ref=1 / me_range=16 / chroma_me=1 / trellis=2 / 8x8dct=1 / cqm=0 / deadzone=21,11 / fast_pskip=0 / chroma_qp_offset=-2 / threads=24 / lookahead_threads=4 / sliced_threads=0 / nr=0 / decimate=1 / interlaced=0 / bluray_compat=0 / constrained_intra=0 / bframes=5 / b_pyramid=2 / b_adapt=1 / b_bias=0 / direct=3 / weightb=1 / open_gop=0 / weightp=1 / keyint=250 / keyint_min=23 / scenecut=40 / intra_refresh=0 / rc_lookahead=40 / rc=2pass / mbtree=1 / bitrate=9215 / ratetol=1.0 / qcomp=0.60 / qpmin=0 / qpmax=69 / qpstep=4 / cplxblur=20.0 / qblur=0.5 / ip_ratio=1.40 / aq=1:1.00
. N& x0 A, S1 y( s$ ~3 ]Language                                 : English2 f  M9 ]9 }: \  d
Default                                  : Yes5 m7 C2 B% i3 u+ U$ u
Forced                                   : No2 G2 R) T8 p5 {) z" U$ P9 Y( D
4 y* L8 E+ W% A# b+ ?2 i8 W
Audio
  U+ i$ L: |  q( @/ a% e. j( pID                                       : 2- v' v( B- D$ F% s* Q; j7 W; F
Format                                   : DTS* \+ K' H# k5 z) b% \6 K
Format/Info                              : Digital Theater Systems
5 J1 `" g  a6 f8 G" S; DCodec ID                                 : A_DTS
- w; ^0 e, o2 g$ o) }' g6 \Duration                                 : 1 h 12 min
" i; d9 S2 ?" P1 S; @; nBit rate mode                            : Constant
3 |$ N) y8 }$ l9 [5 X, s, ~, YBit rate                                 : 1 509 kb/s. Y3 T% N- b  c$ _5 O9 @
Channel(s)                               : 6 channels
0 Z0 Z& k' X2 dChannel layout                           : C L R Ls Rs LFE
! j" H2 G* l& A' |* `" DSampling rate                            : 48.0 kHz, O; B, ]! C! t- P
Frame rate                               : 93.750 FPS (512 SPF)/ n, o! T7 ~% f
Bit depth                                : 24 bits
1 n$ P+ H9 @9 |( X! m- B8 G( v7 j, z6 TCompression mode                         : Lossy8 o  y# R: k' |& g7 N4 w3 y
Stream size                              : 787 MiB (14%)
1 d  {0 X* z. r, X8 O/ q4 ?: i' uLanguage                                 : English
$ l' E! n6 b2 k* ADefault                                  : Yes
# E( h+ @% G$ t# s# N) xForced                                   : No
( V; f" L9 C9 m- n% I$ t8 Y- }. d" Z9 |* X/ n; W- o" i* E+ f+ |
Menu
! n) X& x/ B' Z+ ?00:00:00.000                             : :Kapitel 011 a! r0 e# x, X+ Y- i
00:05:08.183                             : :Kapitel 02
; a6 I, g; G. E$ ~% s00:10:06.105                             : :Kapitel 03; c" s/ ~2 U- F2 {6 l7 x
00:15:08.866                             : :Kapitel 04
  W1 u  X* ~& W+ D7 W00:19:25.081                             : :Kapitel 050 }% g0 Q6 _8 H1 P6 z
00:27:14.424                             : :Kapitel 06& Q  z3 M7 \- m/ r
00:35:49.773                             : :Kapitel 07
, D4 r2 f5 H2 t00:41:24.273                             : :Kapitel 08
1 C* S$ A7 i0 {4 M00:51:00.808                             : :Kapitel 09
0 L- m9 b  n5 g3 @01:01:51.958                             : :Kapitel 10
4 \! P% ~' g, }0 o# U$ {9 N01:06:41.122                             : :Kapitel 110 M7 c& F$ S$ F- p
01:08:33.735                             : :Kapitel 12
( L, }4 e; A5 C  t- f1 q/ k" P" A# N0 j0 R& e1 p
精彩剧照
3 ?9 \9 m7 P, |; c6 @" T+ h9 c3 B, N4 N
朱朱宠物 Quest.for.Zhu.2011.3D.1080p.BluRay.x264-GUACAMOLE 5.47GB-1.png
9 u' r5 s) w- T3 P  q5 n1 {8 ]- Z  {8 n2 m9 h- ^) n( w

  t2 ~# W7 B' u5 P! P6 y5 _2 r蓝光高清网提示您  点击下方附件名称  马上开始下载
  S6 M- R6 T7 r* ]3 u1 I( R" L+ L" t  ?2 H% u! W2 A6 Y
/ \7 u  M/ p5 ?3 l; {$ U% }- M5 ^7 @
朱朱宠物 Quest.for.Zhu.2011.3D.1080p.BluRay.x264-GUACAMOLE 5.47GB# L# {0 h' N% M; o3 A
Quest.for.Zhu.2011.3D.1080p.BluRay.x264-GUACAMOLE.torrent 
         (27.94 KB    阅读权限: 20)
加入蓝光高清网VIP会员  无限制下载本站所有资源---点这里

资源下载、资源播放、字幕使用、无法下载等常见问题---点这里
回复

使用道具 举报

精彩评论3

1100105610 发表于 2020-4-25 11:54:56 | 显示全部楼层
: b- {; p3 w  \0 K( w
祝蓝光高清网越办越红火。
回复

使用道具 举报

帅小子 发表于 2020-4-30 13:08:12 | 显示全部楼层

6 Z5 Q; F1 h) \6 Z  g身体健康,天天开心,祝蓝光高清网越办越红火
回复

使用道具 举报

dangaotv 发表于 2020-6-22 15:48:32 | 显示全部楼层
蛋糕电影 在线播放 无需下载 dangaotv.com
1 ]- ^4 X7 A( y$ |8 e3 P! l感谢蓝光高清网提供的优质资源,希望网站越办越好。
回复

使用道具 举报

您需要登录后才可以回帖 登录 | 立即注册

本版积分规则

关注0

粉丝1

帖子83755

发布主题
最新电影 论坛
本期活动
联系我们
点击这里联系客服

服务时间:
周一到周日8:00-23:30

  • 打开微信扫一扫
    关注公众号

  • 手机QQ扫一扫
    添加客服

手机版蓝光高清网 |网站地图

Powered by Discuz! X3.4  © 2001-2013 Comsenz Inc.