朱朱宠物
sbs 
4.2
  • 年代: 2011年
  • 国家/地区: 美国
  • 类型: 剧情 动画 
  • 导演: Bob Doucette
  • 音轨: DTS-HD.MA 5.1 
  • 时长: 72分钟
  • 主演:
特别声明:本站提供的所有高清电影作品均是在网上搜集,任何涉及商业盈利目的均不得使用,否则产生的一切后果将由您自己承担!本站将不对本站的任何内容负任何法律责任!该下载内容仅做宽带测试使用,请在下载后24小时内删除。请购买正版! 本站所有资源均由网上收集而来,版权归原影音公司所有,如果侵犯了你的权益,请通知我们,我们会及时删除侵权内容.

朱朱宠物 Quest.for.Zhu.2011.3D.1080p.BluRay.x264-GUACAMOLE 5.47GB

[复制链接]
蓝鸟 发表于 2020-4-24 11:56:40 | 显示全部楼层 |阅读模式 打印 上一主题 下一主题
简  介  
: i, K4 H0 ]" I9 t1 ]3 t. I+ g* o, j6 m' m0 b+ e, B
  这是一个温馨的故事。四个充满活力的小动物(仓鼠)应邀去寻找朱朱宫殿。他们相信他们梦想在那儿会得到实现。被卷到朱朱世界的活泼可爱的点点也加入了探险队伍。在她的冒险旅途中,她朋友般的照顾小胖,囡囡和弯弯。9 p+ K% N& o. ?! Z2 g
  当他们到达朱朱宫殿的时候,他们意识到这只是他们伟大旅行的开始。卑鄙的,有控制欲的爬行动物——蛇妖想要阻止他们实现梦想。但是他们同心协力,他们——朱朱英雄拯救了世界!点点意识到她已经拥有了她梦想的一切,而她真正想要的就是回家。# ~, E- d9 y3 L) l& n7 }' ]
1 ~# e" m0 L9 i$ v& `6 |$ w( Z4 H
: a9 o. ~* r5 ]! z
影片参数9 }$ w2 S4 v# j1 o3 D8 W8 u
Video% `) w3 e+ v+ i' |+ f
ID                                       : 1
9 n2 J) q9 I9 Y' n% X. M6 e8 Q2 E( aFormat                                   : AVC
' C& \" V2 ?4 ]1 ^Format/Info                              : Advanced Video Codec
) n" o  X, A% ]$ q( _Format profile                           : High@L4/ U& U/ Z5 f3 H
Format settings                          : CABAC / 4 Ref Frames( D+ j9 Q% u! r
Format settings, CABAC                   : Yes4 m4 U1 }& `/ X3 U9 p# s6 U. H
Format settings, Reference frames        : 4 frames
% s- x. \9 w* v" G4 lCodec ID                                 : V_MPEG4/ISO/AVC  u' y' J: c' e9 i* M, c
Duration                                 : 1 h 12 min( R: t5 _5 ]; j9 j
Bit rate                                 : 9 215 kb/s
# \: Z8 e" M" [, A2 R, [5 T$ CWidth                                    : 1 920 pixels
, `" t0 s+ f* U; PHeight                                   : 1 080 pixels1 u5 \% P8 n- Q& @& W5 h* ?! ?" C
Display aspect ratio                     : 16:9
2 Q1 P+ Z6 C- O5 {Frame rate mode                          : Constant, Y, ]: s7 y& X9 T2 X* y) n0 F
Frame rate                               : 23.976 FPS
( a- H; r9 b. n6 r; u% O  [+ d& y7 EColor space                              : YUV( F3 s3 }2 s2 v0 R% p8 K
Chroma subsampling                       : 4:2:0
1 M8 b% M4 u7 W( l: y1 T; G3 QBit depth                                : 8 bits
) a- c3 x8 ]4 {1 R; M2 VScan type                                : Progressive
3 ^$ w( E6 [; V0 @: j0 k9 \0 |5 UBits/(Pixel*Frame)                       : 0.185
  {7 |9 {, b( a& lStream size                              : 4.70 GiB (86%)! G4 r/ Z9 {$ ]( k3 O
Writing library                          : x264 core 159 r2991 1771b550 H: |* _( o' Y1 J8 l" x
Encoding settings                        : cabac=1 / ref=4 / deblock=1:-1:-1 / analyse=0x3:0x113 / me=umh / subme=8 / psy=1 / psy_rd=1.00:0.00 / mixed_ref=1 / me_range=16 / chroma_me=1 / trellis=2 / 8x8dct=1 / cqm=0 / deadzone=21,11 / fast_pskip=0 / chroma_qp_offset=-2 / threads=24 / lookahead_threads=4 / sliced_threads=0 / nr=0 / decimate=1 / interlaced=0 / bluray_compat=0 / constrained_intra=0 / bframes=5 / b_pyramid=2 / b_adapt=1 / b_bias=0 / direct=3 / weightb=1 / open_gop=0 / weightp=1 / keyint=250 / keyint_min=23 / scenecut=40 / intra_refresh=0 / rc_lookahead=40 / rc=2pass / mbtree=1 / bitrate=9215 / ratetol=1.0 / qcomp=0.60 / qpmin=0 / qpmax=69 / qpstep=4 / cplxblur=20.0 / qblur=0.5 / ip_ratio=1.40 / aq=1:1.00
; {: h) ]  S% N5 U  L( ]( WLanguage                                 : English
3 `2 W5 i+ z7 h" n& SDefault                                  : Yes
! N$ [  O0 q; t0 G, @" rForced                                   : No
/ \4 p, I; {; P5 o( l3 ~' |
. r$ G- Q% G4 P+ nAudio
0 _. D' w& s) T2 J- D3 WID                                       : 2, d8 V/ m; g: A: P1 u  F
Format                                   : DTS2 x. X1 q$ i( `: ?" `3 b
Format/Info                              : Digital Theater Systems
! C5 r+ q# R9 M& ^# U/ ^3 D1 d: ~Codec ID                                 : A_DTS1 |. U  {3 X" s# J# A
Duration                                 : 1 h 12 min
0 ]3 f0 T; k+ L- Z* Q, PBit rate mode                            : Constant
) s1 q3 G' V! _2 eBit rate                                 : 1 509 kb/s
! N0 M' l$ i5 x  |Channel(s)                               : 6 channels
  @' d! T# I& f) mChannel layout                           : C L R Ls Rs LFE( U# h9 U* F" R8 U' i6 R( I' C
Sampling rate                            : 48.0 kHz
( l5 n. \4 j# v* d% z" [+ mFrame rate                               : 93.750 FPS (512 SPF)
! A5 t9 m) E  J$ U2 xBit depth                                : 24 bits/ h/ s7 i( g6 ~5 {$ X! a
Compression mode                         : Lossy
$ W* C& {9 h! p' }7 a$ ^8 r- @Stream size                              : 787 MiB (14%)* J8 k$ A) F( M1 h( [
Language                                 : English
6 r% o7 l0 w, |  s0 q; I$ XDefault                                  : Yes8 y( b4 }+ y5 b, f) I5 r- z
Forced                                   : No
- m6 m  I  U% P0 D' R+ q
* V4 ?0 n, v! R# C( xMenu0 T/ _$ \- ?9 g
00:00:00.000                             : :Kapitel 01
. N! m$ e. {3 L! T2 N) s% x00:05:08.183                             : :Kapitel 02
2 x( a; }5 \: J; V3 \' V. h00:10:06.105                             : :Kapitel 03, g/ n, O, `1 I! N$ C7 M
00:15:08.866                             : :Kapitel 04
( x3 |' S* k; f" [00:19:25.081                             : :Kapitel 05
+ `4 p* l* e; m& ?00:27:14.424                             : :Kapitel 06
# ^, b) Y( t) ^1 [  p00:35:49.773                             : :Kapitel 073 q3 ]6 a, i) ^% a
00:41:24.273                             : :Kapitel 08
/ q  K! p3 h; m8 K' o( \00:51:00.808                             : :Kapitel 095 x- i3 G+ I: ?1 v
01:01:51.958                             : :Kapitel 10. y& W4 L: V6 H
01:06:41.122                             : :Kapitel 113 q) o/ p0 H1 M
01:08:33.735                             : :Kapitel 12
4 v7 u- w  I, A9 }2 F) U7 x; `" I( ^* W
精彩剧照& k9 |- y8 T" U; r/ w
( x. s1 |2 G+ L8 V/ R
朱朱宠物 Quest.for.Zhu.2011.3D.1080p.BluRay.x264-GUACAMOLE 5.47GB-1.png
1 W& s/ K5 W( _: U& W5 y2 ^( W0 Q2 b: a& O
* q3 |7 ]7 f, w; V  v1 C/ {: J4 f
蓝光高清网提示您  点击下方附件名称  马上开始下载
5 O- U9 N8 r$ E' C4 U6 |6 X* v; t2 l( e/ m! J1 `( o' _' c1 n% a

7 A6 k& R: [, T( {朱朱宠物 Quest.for.Zhu.2011.3D.1080p.BluRay.x264-GUACAMOLE 5.47GB
; q1 [" V9 O( g6 p; U1 r3 v2 ^7 m Quest.for.Zhu.2011.3D.1080p.BluRay.x264-GUACAMOLE.torrent 
         (27.94 KB    阅读权限: 20)
加入蓝光高清网VIP会员  无限制下载本站所有资源---点这里

资源下载、资源播放、字幕使用、无法下载等常见问题---点这里
回复

使用道具 举报

精彩评论6

1100105610 发表于 2020-4-25 11:54:56 | 显示全部楼层
/ y- G8 t7 r5 N. @
祝蓝光高清网越办越红火。
回复

使用道具 举报

帅小子 发表于 2020-4-30 13:08:12 | 显示全部楼层
- c( o! V& W- H9 B
身体健康,天天开心,祝蓝光高清网越办越红火
回复

使用道具 举报

dangaotv 发表于 2020-6-22 15:48:32 | 显示全部楼层
蛋糕电影 在线播放 无需下载 dangaotv.com4 G3 w* p8 `+ N9 b  y2 c% o- T
感谢蓝光高清网提供的优质资源,希望网站越办越好。
回复

使用道具 举报

程汝轩 发表于 2020-7-9 12:48:59 | 显示全部楼层
, w; s1 g; D) K* V
非常感谢蓝光高清网给大家的享乐4k,祝蓝光高清网越办越好!
回复

使用道具 举报

wrangler7 发表于 2020-7-15 08:07:03 | 显示全部楼层
3 S3 ?4 y1 J! Y( i' b4 v- S0 M
非常感谢蓝光高清网给大家的享乐4k,祝蓝光高清网越办越好!
回复

使用道具 举报

wrangler7 发表于 2020-8-21 12:27:11 | 显示全部楼层

% Q3 G" n0 u* g. I5 F祝大家身体健康,团结一致,抗击疫情
回复

使用道具 举报

您需要登录后才可以回帖 登录 | 立即注册

本版积分规则

关注0

粉丝1

帖子88157

发布主题
最新电影 论坛
本期活动
联系我们
点击这里联系客服

服务时间:
周一到周日8:00-23:30

  • 打开微信扫一扫
    关注公众号

  • 手机QQ扫一扫
    添加客服

手机版蓝光高清网 |网站地图

Powered by Discuz! X3.4 Licensed  © 2001-2013 Comsenz Inc.