游客您好
第三方账号登陆
  • 点击联系客服

    在线时间:9:00-18:00

    客服QQ

    1371333023

    电子邮件

    lanniao@1080pro.net
  • 烧友之家APP

    随时掌握烧友资讯

  • 扫描二维码

    关注微信公众号

推荐阅读
蓝鸟
未知星球 | 未知职业
  • 关注0
  • 粉丝2
  • 帖子94297
精选帖子
开启左侧

[4K大陆剧] 国产新剧 【鬼吹灯之龙岭迷窟】—21.29GB

[复制链接]
蓝鸟 发表于 2020-5-2 12:15:11 | 显示全部楼层 |阅读模式 打印 上一主题 下一主题
鬼吹灯之龙岭迷窟

状态:(完结)
上映时间:2020-04-02
类型:动作 奇幻 冒险 
地区:大陆
导演:朴成淑
主演:林雨申 / 康宁 / 赵雷棋 / 季东燃 / 李冲
画质标准:4K(3840x2160) 封装音轨:MKV 音轨编码:其他AAC
豆瓣评分:2.9分

加入蓝光高清网,轻松下载最新4k资源

您需要 登录 才可以下载或查看,没有帐号?立即注册

x
简       介


影片讲述了自精绝古城回来后,Shirley杨带陈教授回美国治疗,却发现背上长出眼球状的红斑。胡八一与王胖子、大金牙前往陕西古蓝县进货遇到Shirley杨。四人进到一座幽灵冢险些葬于人面蜘蛛的果腹,出来后,胡八一和王胖子也长出红斑。Shirley杨拿着外公鹧鸪哨的笔记,发现黑水城的通天大佛寺中,很有可能藏有解开红斑诅咒的关键——雮尘珠。三人沿黄河继续进发,按照笔记指引进到寺内,在对抗黑玉邪神之时,发现一藏宝箱,里面究竟藏着雮尘珠,还是暗藏凶险?摸金小队又能否成功揭开鬼眼红斑的诅咒谜团呢


影片参数
General
Complete name              龙岭迷窟全18集\龙岭迷窟.E01.mp4
Format                         : MPEG-4
Format profile                 : Base Media
Codec ID                       : isom (isom)
File size                      : 1.41 GiB
Duration                       : 36 min 13 s
Overall bit rate mode          : Variable
Overall bit rate               : 5 557 kb/s

Video
ID                             : 1
Format                         : HEVC
Format/Info                    : High Efficiency Video Coding
Format profile                 : Main@L5@Main
Codec ID                       : hev1
Codec ID/Info                  : High Efficiency Video Coding
Duration                       : 36 min 13 s
Bit rate                       : 5 425 kb/s
Maximum bit rate               : 21.5 Mb/s
Width                          : 3 840 pixels
Height                         : 1 452 pixels
Display aspect ratio           : 2.645
Frame rate mode                : Variable
Frame rate                     : 25.000 FPS
Minimum frame rate             : 24.993 FPS
Maximum frame rate             : 25.007 FPS
Color space                    : YUV
Chroma subsampling             : 4:2:0
Bit depth                      : 8 bits
Bits/(Pixel*Frame)             : 0.039
Stream size                    : 1.37 GiB (98%)

Audio
ID                             : 2
Format                         : AAC
Format/Info                    : Advanced Audio Codec
Format profile                 : LC
Codec ID                       : mp4a-40-2
Duration                       : 36 min 13 s
Bit rate mode                  : Variable
Bit rate                       : 128 kb/s
Maximum bit rate               : 170 kb/s
Channel(s)                     : 2 channels
Channel positions              : Front: L R
Sampling rate                  : 48.0 kHz
Frame rate                     : 46.875 FPS (1024 SPF)
Compression mode               : Lossy
Stream size                    : 33.2 MiB (2%)
Default                        : Yes
Alternate group                : 1

腾讯视频版本,整体码率不高,视频分辨率3840*1452,音频为2.0声道,算不上好版本但毫不影响观看。不喜勿下!

蓝光高清网提示您  点击下方附件名称  马上开始下载


国产新剧 【鬼吹灯之龙岭迷窟】—21.29GB
龙岭迷窟.18集全.candle in the tomb the lost caverns 2020 2160p(4k) web-dl h265 a.torrent (文件大小:108.34 KB)
加入蓝光高清网VIP会员  无限制下载本站所有资源---点这里

资源下载、资源播放、字幕使用、无法下载等常见问题---点这里
回复

使用道具 举报

精彩评论4

gdlmxia 发表于 2020-5-3 12:20:45 | 显示全部楼层
太好啦&萬分感謝版主的無私發佈分享%
回复 支持 反对

使用道具 举报

梦见市 发表于 2020-8-23 00:35:50 | 显示全部楼层
非常感谢蓝光高清网分享的各种知识和资源,祝蓝光高清网越来越好
回复 支持 反对

使用道具 举报

LAJISE 发表于 2020-8-24 09:37:20 | 显示全部楼层

祝蓝光高清网越办越红火。
回复 支持 反对

使用道具 举报

574946793 发表于 2020-11-26 19:50:57 | 显示全部楼层

非常感谢蓝光高清网给大家的享乐4k,祝蓝光高清网越办越好!
回复 支持 反对

使用道具 举报

您需要登录后才可以回帖 登录 | 立即注册

本版积分规则

烧友之家(蓝光高清网)本站内容部分由用户自主分享和转载自互联网,转载目的在于传递更多信息,并不代表本网赞同其观点和对其真实性负责。 如有侵权、违反国家法律政策行为,请联系我们,我们会第一时间及时清除和处理!
蓝光高清网 综合资讯平台
关注我们
  • 官方微信公众号
  • 扫码下载官方APP

X3.4 Licensed© 2001-2013 蓝光高清网 烧友之家APP |网站地图