[喜剧片] 刺猬索尼克/超音鼠大电影 Sonic.The.Hedgehog.2020.1080p.BluRay.REMUX.AVC.DTS-HD.MA.TrueHD.7.1.Atmos-FGT 29.01GB

[复制链接]
蓝鸟 发表于 2020-5-3 18:18:44 | 显示全部楼层 |阅读模式 打印 上一主题 下一主题

刺猬索尼克/超音鼠大电影 Sonic.The.Hedgehog.2020.1080p.BluRay.REMUX.AVC.DTS-HD.MA.TrueHD.7.1.Atmos-FG ...

刺猬索尼克/超音鼠大电影 Sonic.The.Hedgehog.2020.1080p.BluRay.REMUX.AVC.DTS-HD.MA.TrueHD.7.1.Atmos-FG ...


译  名 刺猬索尼克 / 超音鼠大电影(港) / 音速小子(台)
片  名 Sonic the Hedgehog
年  代 2020
产  地 加拿大 / 日本 / 美国
类  别 喜剧 / 动作 / 动画 / 冒险
语  言 英语
上映日期 2020(中国大陆) / 2020-02-14(美国)
IMDb评分  6.6/10 from 49619 users
IMDb链接  https://www.imdb.com/title/tt3794354
豆瓣评分 6.1/10 from 12409 users
豆瓣链接 https://movie.douban.com/subject/25905044/
片  长 99分钟
导  演 杰夫·福勒 Jeff Fowler
编  剧 范·罗比查乌克斯 Van Robichaux / 埃文·萨瑟 Evan Susser / 乔什·米勒 Josh Miller / Patrick Casey / 奥伦·尤济尔 Oren Uziel / 中裕司 Yuji Naka / Naoto Ohshima / Hirokazu Yasuhara
主  演 詹姆斯·麦斯登 James Marsden
       金·凯瑞 Jim Carrey
       本·施瓦茨 Ben Schwartz
       提卡·森普特 Tika Sumpter
       娜塔莎·罗斯韦尔 Natasha Rothwell
       亚当·佩里 Adam Pally
       李·马贾道布 Lee Majdoub
       尼尔·麦克唐纳 Neal McDonough
       汤姆·巴特勒 Tom Butler
       弗兰克·C·特纳 Frank C. Turner
       梅洛德·诺西普·尼曼 Melody Nosipho Niemann
       珊农·陈-肯特 Shannon Chan-Kent
       布拉德·凯利 Brad Kelly
       尔芬娜·卢克 Elfina Luk
       加里·切克 Gary Chalk
       迈克尔·霍根 Michael Hogan
       珍妮·克鲁蒂尔 Jeanie Cloutier
       贝利·斯科德里 Bailey Skodje
       杰夫·桑卡 Jeff Sanca
       丽莎·钱德勒 Lisa Chandler
       科琳·欧肖内希 Colleen O"Shaughnessey
       利安娜·拉普 Leanne Lapp


标  签 游戏改编 | 动画 | 美国 | 喜剧 | 科幻 | 2020 | 索尼克 | 游戏

简  介  

  改编自世嘉公司出品的风靡全球的电子游戏。电影讲述了拥有音速奔跑能力的刺猬索尼克在地球上展开新生活的故事。索尼克和他的新朋友汤姆(詹姆斯·麦斯登 饰)联手保护地球,阻止邪恶的蛋头博士(金·凯瑞 饰)统治世界的计划。这部适合全家观看的电影还邀请了迪卡·桑普特参演,本·施瓦茨为索尼克配音。


该资源信息参数
  1. Video
  2. ID                                       : 1
  3. Format                                   : AVC
  4. Format/Info                              : Advanced Video Codec
  5. Format profile                           : High@L4
  6. Format settings                          : CABAC / 4 Ref Frames
  7. Format settings, CABAC                   : Yes
  8. Format settings, Reference frames        : 4 frames
  9. Codec ID                                 : V_MPEG4/ISO/AVC
  10. Duration                                 : 1 h 38 min
  11. Bit rate mode                            : Variable
  12. Bit rate                                 : 26.8 Mb/s
  13. Maximum bit rate                         : 29.9 Mb/s
  14. Width                                    : 1 920 pixels
  15. Height                                   : 1 080 pixels
  16. Display aspect ratio                     : 16:9
  17. Frame rate mode                          : Constant
  18. Frame rate                               : 23.976 (24000/1001/189150) FPS
  19. Color space                              : YUV
  20. Chroma subsampling                       : 4:2:0
  21. Bit depth                                : 8 bits
  22. Scan type                                : Progressive
  23. Bits/(Pixel*Frame)                       : 0.539
  24. Stream size                              : 18.5 GiB (64%)
  25. Title                                    : Sonic.The.Hedgehog.2020.1080p.BluRay.REMUX.AVC.DTS-HD.MA.TrueHD.7.1.Atmos-FGT
  26. Language                                 : English
  27. Default                                  : No
  28. Forced                                   : No

  29. Audio #1
  30. ID                                       : 2
  31. Format                                   : MLP FBA 16-ch
  32. Format/Info                              : Meridian Lossless Packing FBA with 16-channel presentation
  33. Commercial name                          : Dolby TrueHD with Dolby Atmos
  34. Codec ID                                 : A_TRUEHD
  35. Duration                                 : 1 h 38 min
  36. Bit rate mode                            : Variable
  37. Bit rate                                 : 4 434 kb/s
  38. Maximum bit rate                         : 7 872 kb/s
  39. Channel(s)                               : 8 channels
  40. Channel layout                           : L R C LFE Ls Rs Lb Rb
  41. Sampling rate                            : 48.0 kHz
  42. Frame rate                               : 1 200.000 FPS (40 SPF)
  43. Compression mode                         : Lossless
  44. Stream size                              : 3.06 GiB (11%)
  45. Title                                    : Sonic.The.Hedgehog.2020.1080p.BluRay.REMUX.AVC.DTS-HD.MA.TrueHD.7.1.Atmos-FGT
  46. Language                                 : English
  47. Default                                  : Yes
  48. Forced                                   : No
  49. Number of dynamic objects                : 11
  50. Bed channel count                        : 1 channel
  51. Bed channel configuration                : LFE

  52. Audio #2
  53. ID                                       : 3
  54. Format                                   : DTS XLL
  55. Format/Info                              : Digital Theater Systems
  56. Commercial name                          : DTS-HD Master Audio
  57. Codec ID                                 : A_DTS
  58. Duration                                 : 1 h 38 min
  59. Bit rate mode                            : Variable
  60. Bit rate                                 : 4 188 kb/s
  61. Channel(s)                               : 8 channels
  62. Channel layout                           : C L R LFE Lb Rb Lss Rss
  63. Sampling rate                            : 48.0 kHz
  64. Frame rate                               : 93.750 FPS (512 SPF)
  65. Bit depth                                : 24 bits
  66. Compression mode                         : Lossless
  67. Stream size                              : 2.89 GiB (10%)
  68. Title                                    : Sonic.The.Hedgehog.2020.1080p.BluRay.REMUX.AVC.DTS-HD.MA.TrueHD.7.1.Atmos-FGT
  69. Language                                 : English
  70. Default                                  : No
  71. Forced                                   : No

  72. Audio #3
  73. ID                                       : 4
  74. Format                                   : AC-3
  75. Format/Info                              : Audio Coding 3
  76. Commercial name                          : Dolby Digital
  77. Codec ID                                 : A_AC3
  78. Duration                                 : 1 h 38 min
  79. Bit rate mode                            : Constant
  80. Bit rate                                 : 640 kb/s
  81. Channel(s)                               : 6 channels
  82. Channel layout                           : L R C LFE Ls Rs
  83. Sampling rate                            : 48.0 kHz
  84. Frame rate                               : 31.250 FPS (1536 SPF)
  85. Bit depth                                : 16 bits
  86. Compression mode                         : Lossy
  87. Stream size                              : 453 MiB (2%)
  88. Title                                    : Sonic.The.Hedgehog.2020.1080p.BluRay.REMUX.AVC.DTS-HD.MA.TrueHD.7.1.Atmos-FGT
  89. Language                                 : English
  90. Service kind                             : Complete Main
  91. Default                                  : No
  92. Forced                                   : No

  93. Audio #4
  94. ID                                       : 5
  95. Format                                   : AC-3
  96. Format/Info                              : Audio Coding 3
  97. Commercial name                          : Dolby Digital
  98. Codec ID                                 : A_AC3
  99. Duration                                 : 1 h 38 min
  100. Bit rate mode                            : Constant
  101. Bit rate                                 : 640 kb/s
  102. Channel(s)                               : 6 channels
  103. Channel layout                           : L R C LFE Ls Rs
  104. Sampling rate                            : 48.0 kHz
  105. Frame rate                               : 31.250 FPS (1536 SPF)
  106. Bit depth                                : 16 bits
  107. Compression mode                         : Lossy
  108. Stream size                              : 453 MiB (2%)
  109. Title                                    : Sonic.The.Hedgehog.2020.1080p.BluRay.REMUX.AVC.DTS-HD.MA.TrueHD.7.1.Atmos-FGT
  110. Language                                 : English
  111. Service kind                             : Complete Main
  112. Default                                  : No
  113. Forced                                   : No

  114. Audio #5
  115. ID                                       : 6
  116. Format                                   : AC-3
  117. Format/Info                              : Audio Coding 3
  118. Commercial name                          : Dolby Digital
  119. Codec ID                                 : A_AC3
  120. Duration                                 : 1 h 38 min
  121. Bit rate mode                            : Constant
  122. Bit rate                                 : 640 kb/s
  123. Channel(s)                               : 6 channels
  124. Channel layout                           : L R C LFE Ls Rs
  125. Sampling rate                            : 48.0 kHz
  126. Frame rate                               : 31.250 FPS (1536 SPF)
  127. Bit depth                                : 16 bits
  128. Compression mode                         : Lossy
  129. Stream size                              : 453 MiB (2%)
  130. Title                                    : Sonic.The.Hedgehog.2020.1080p.BluRay.REMUX.AVC.DTS-HD.MA.TrueHD.7.1.Atmos-FGT
  131. Language                                 : Spanish
  132. Service kind                             : Complete Main
  133. Default                                  : No
  134. Forced                                   : No

  135. Audio #6
  136. ID                                       : 7
  137. Format                                   : AC-3
  138. Format/Info                              : Audio Coding 3
  139. Commercial name                          : Dolby Digital
  140. Codec ID                                 : A_AC3
  141. Duration                                 : 1 h 38 min
  142. Bit rate mode                            : Constant
  143. Bit rate                                 : 640 kb/s
  144. Channel(s)                               : 6 channels
  145. Channel layout                           : L R C LFE Ls Rs
  146. Sampling rate                            : 48.0 kHz
  147. Frame rate                               : 31.250 FPS (1536 SPF)
  148. Bit depth                                : 16 bits
  149. Compression mode                         : Lossy
  150. Stream size                              : 453 MiB (2%)
  151. Title                                    : Sonic.The.Hedgehog.2020.1080p.BluRay.REMUX.AVC.DTS-HD.MA.TrueHD.7.1.Atmos-FGT
  152. Language                                 : Spanish
  153. Service kind                             : Complete Main
  154. Default                                  : No
  155. Forced                                   : No

  156. Audio #7
  157. ID                                       : 8
  158. Format                                   : AC-3
  159. Format/Info                              : Audio Coding 3
  160. Commercial name                          : Dolby Digital
  161. Codec ID                                 : A_AC3
  162. Duration                                 : 1 h 38 min
  163. Bit rate mode                            : Constant
  164. Bit rate                                 : 640 kb/s
  165. Channel(s)                               : 6 channels
  166. Channel layout                           : L R C LFE Ls Rs
  167. Sampling rate                            : 48.0 kHz
  168. Frame rate                               : 31.250 FPS (1536 SPF)
  169. Bit depth                                : 16 bits
  170. Compression mode                         : Lossy
  171. Stream size                              : 453 MiB (2%)
  172. Title                                    : Sonic.The.Hedgehog.2020.1080p.BluRay.REMUX.AVC.DTS-HD.MA.TrueHD.7.1.Atmos-FGT
  173. Language                                 : French
  174. Service kind                             : Complete Main
  175. Default                                  : No
  176. Forced                                   : No

  177. Audio #8
  178. ID                                       : 9
  179. Format                                   : AC-3
  180. Format/Info                              : Audio Coding 3
  181. Commercial name                          : Dolby Digital
  182. Codec ID                                 : A_AC3
  183. Duration                                 : 1 h 38 min
  184. Bit rate mode                            : Constant
  185. Bit rate                                 : 640 kb/s
  186. Channel(s)                               : 6 channels
  187. Channel layout                           : L R C LFE Ls Rs
  188. Sampling rate                            : 48.0 kHz
  189. Frame rate                               : 31.250 FPS (1536 SPF)
  190. Bit depth                                : 16 bits
  191. Compression mode                         : Lossy
  192. Stream size                              : 453 MiB (2%)
  193. Title                                    : Sonic.The.Hedgehog.2020.1080p.BluRay.REMUX.AVC.DTS-HD.MA.TrueHD.7.1.Atmos-FGT
  194. Language                                 : French
  195. Service kind                             : Complete Main
  196. Default                                  : No
  197. Forced                                   : No

  198. Audio #9
  199. ID                                       : 10
  200. Format                                   : AC-3
  201. Format/Info                              : Audio Coding 3
  202. Commercial name                          : Dolby Digital
  203. Codec ID                                 : A_AC3
  204. Duration                                 : 1 h 38 min
  205. Bit rate mode                            : Constant
  206. Bit rate                                 : 640 kb/s
  207. Channel(s)                               : 6 channels
  208. Channel layout                           : L R C LFE Ls Rs
  209. Sampling rate                            : 48.0 kHz
  210. Frame rate                               : 31.250 FPS (1536 SPF)
  211. Bit depth                                : 16 bits
  212. Compression mode                         : Lossy
  213. Stream size                              : 453 MiB (2%)
  214. Title                                    : Sonic.The.Hedgehog.2020.1080p.BluRay.REMUX.AVC.DTS-HD.MA.TrueHD.7.1.Atmos-FGT
  215. Language                                 : Italian
  216. Service kind                             : Complete Main
  217. Default                                  : No
  218. Forced                                   : No

  219. Audio #10
  220. ID                                       : 11
  221. Format                                   : AC-3
  222. Format/Info                              : Audio Coding 3
  223. Commercial name                          : Dolby Digital
  224. Codec ID                                 : A_AC3
  225. Duration                                 : 1 h 38 min
  226. Bit rate mode                            : Constant
  227. Bit rate                                 : 640 kb/s
  228. Channel(s)                               : 6 channels
  229. Channel layout                           : L R C LFE Ls Rs
  230. Sampling rate                            : 48.0 kHz
  231. Frame rate                               : 31.250 FPS (1536 SPF)
  232. Bit depth                                : 16 bits
  233. Compression mode                         : Lossy
  234. Stream size                              : 453 MiB (2%)
  235. Title                                    : Sonic.The.Hedgehog.2020.1080p.BluRay.REMUX.AVC.DTS-HD.MA.TrueHD.7.1.Atmos-FGT
  236. Language                                 : Portuguese
  237. Service kind                             : Complete Main
  238. Default                                  : No
  239. Forced                                   : No

  240. Audio #11
  241. ID                                       : 12
  242. Format                                   : AC-3
  243. Format/Info                              : Audio Coding 3
  244. Commercial name                          : Dolby Digital
  245. Codec ID                                 : A_AC3
  246. Duration                                 : 1 h 38 min
  247. Bit rate mode                            : Constant
  248. Bit rate                                 : 640 kb/s
  249. Channel(s)                               : 6 channels
  250. Channel layout                           : L R C LFE Ls Rs
  251. Sampling rate                            : 48.0 kHz
  252. Frame rate                               : 31.250 FPS (1536 SPF)
  253. Bit depth                                : 16 bits
  254. Compression mode                         : Lossy
  255. Stream size                              : 453 MiB (2%)
  256. Title                                    : Sonic.The.Hedgehog.2020.1080p.BluRay.REMUX.AVC.DTS-HD.MA.TrueHD.7.1.Atmos-FGT
  257. Language                                 : Swedish
  258. Service kind                             : Complete Main
  259. Default                                  : No
  260. Forced                                   : No

  261. Audio #12
  262. ID                                       : 13
  263. Format                                   : AC-3
  264. Format/Info                              : Audio Coding 3
  265. Commercial name                          : Dolby Digital
  266. Codec ID                                 : A_AC3
  267. Duration                                 : 1 h 38 min
  268. Bit rate mode                            : Constant
  269. Bit rate                                 : 224 kb/s
  270. Channel(s)                               : 2 channels
  271. Channel layout                           : L R
  272. Sampling rate                            : 48.0 kHz
  273. Frame rate                               : 31.250 FPS (1536 SPF)
  274. Bit depth                                : 16 bits
  275. Compression mode                         : Lossy
  276. Stream size                              : 158 MiB (1%)
  277. Title                                    : Sonic.The.Hedgehog.2020.1080p.BluRay.REMUX.AVC.DTS-HD.MA.TrueHD.7.1.Atmos-FGT
  278. Language                                 : English
  279. Service kind                             : Complete Main
  280. Default                                  : No
  281. Forced                                   : No

  282. Text #1
  283. ID                                       : 14
  284. Format                                   : UTF-8
  285. Codec ID                                 : S_TEXT/UTF8
  286. Codec ID/Info                            : UTF-8 Plain Text
  287. Duration                                 : 1 h 31 min
  288. Bit rate                                 : 65 b/s
  289. Count of elements                        : 1276
  290. Stream size                              : 43.8 KiB (0%)
  291. Title                                    : English-SRT
  292. Language                                 : English
  293. Default                                  : Yes
  294. Forced                                   : No

  295. Text #2
  296. ID                                       : 15
  297. Format                                   : PGS
  298. Muxing mode                              : zlib
  299. Codec ID                                 : S_HDMV/PGS
  300. Codec ID/Info                            : Picture based subtitle format used on BDs/HD-DVDs
  301. Duration                                 : 1 h 31 min
  302. Bit rate                                 : 45.2 kb/s
  303. Count of elements                        : 2564
  304. Stream size                              : 29.6 MiB (0%)
  305. Title                                    : English-PGS
  306. Language                                 : English
  307. Default                                  : No
  308. Forced                                   : No

  309. Text #3
  310. ID                                       : 16
  311. Format                                   : PGS
  312. Muxing mode                              : zlib
  313. Codec ID                                 : S_HDMV/PGS
  314. Codec ID/Info                            : Picture based subtitle format used on BDs/HD-DVDs
  315. Duration                                 : 1 h 32 min
  316. Bit rate                                 : 51.8 kb/s
  317. Count of elements                        : 3184
  318. Stream size                              : 34.3 MiB (0%)
  319. Title                                    : English-SDH-PGSPGS
  320. Language                                 : English
  321. Default                                  : No
  322. Forced                                   : No

  323. Text #4
  324. ID                                       : 17
  325. Format                                   : PGS
  326. Muxing mode                              : zlib
  327. Codec ID                                 : S_HDMV/PGS
  328. Codec ID/Info                            : Picture based subtitle format used on BDs/HD-DVDs
  329. Duration                                 : 1 h 37 min
  330. Bit rate                                 : 36.0 kb/s
  331. Count of elements                        : 2512
  332. Stream size                              : 25.1 MiB (0%)
  333. Title                                    : Danish-PGS
  334. Language                                 : Danish
  335. Default                                  : No
  336. Forced                                   : No

  337. Text #5
  338. ID                                       : 18
  339. Format                                   : PGS
  340. Muxing mode                              : zlib
  341. Codec ID                                 : S_HDMV/PGS
  342. Codec ID/Info                            : Picture based subtitle format used on BDs/HD-DVDs
  343. Duration                                 : 1 h 37 min
  344. Bit rate                                 : 38.6 kb/s
  345. Count of elements                        : 2528
  346. Stream size                              : 26.9 MiB (0%)
  347. Title                                    : Spanish-PGS
  348. Language                                 : Spanish
  349. Default                                  : No
  350. Forced                                   : No

  351. Text #6
  352. ID                                       : 19
  353. Format                                   : PGS
  354. Muxing mode                              : zlib
  355. Codec ID                                 : S_HDMV/PGS
  356. Codec ID/Info                            : Picture based subtitle format used on BDs/HD-DVDs
  357. Duration                                 : 1 h 35 min
  358. Bit rate                                 : 651 b/s
  359. Count of elements                        : 48
  360. Stream size                              : 454 KiB (0%)
  361. Title                                    : Spanish-FORCED-PGS
  362. Language                                 : Spanish
  363. Default                                  : No
  364. Forced                                   : No

  365. Text #7
  366. ID                                       : 20
  367. Format                                   : PGS
  368. Muxing mode                              : zlib
  369. Codec ID                                 : S_HDMV/PGS
  370. Codec ID/Info                            : Picture based subtitle format used on BDs/HD-DVDs
  371. Duration                                 : 1 h 37 min
  372. Bit rate                                 : 40.7 kb/s
  373. Count of elements                        : 2618
  374. Stream size                              : 28.4 MiB (0%)
  375. Title                                    : Spanish-PGS
  376. Language                                 : Spanish
  377. Default                                  : No
  378. Forced                                   : No

  379. Text #8
  380. ID                                       : 21
  381. Format                                   : PGS
  382. Muxing mode                              : zlib
  383. Codec ID                                 : S_HDMV/PGS
  384. Codec ID/Info                            : Picture based subtitle format used on BDs/HD-DVDs
  385. Duration                                 : 1 h 35 min
  386. Bit rate                                 : 645 b/s
  387. Count of elements                        : 48
  388. Stream size                              : 449 KiB (0%)
  389. Title                                    : Spanish-FORCED-PGS
  390. Language                                 : Spanish
  391. Default                                  : No
  392. Forced                                   : No

  393. Text #9
  394. ID                                       : 22
  395. Format                                   : PGS
  396. Muxing mode                              : zlib
  397. Codec ID                                 : S_HDMV/PGS
  398. Codec ID/Info                            : Picture based subtitle format used on BDs/HD-DVDs
  399. Duration                                 : 1 h 37 min
  400. Bit rate                                 : 32.9 kb/s
  401. Count of elements                        : 2468
  402. Stream size                              : 23.0 MiB (0%)
  403. Title                                    : French-PGS
  404. Language                                 : French
  405. Default                                  : No
  406. Forced                                   : No

  407. Text #10
  408. ID                                       : 23
  409. Format                                   : PGS
  410. Muxing mode                              : zlib
  411. Codec ID                                 : S_HDMV/PGS
  412. Codec ID/Info                            : Picture based subtitle format used on BDs/HD-DVDs
  413. Duration                                 : 1 h 35 min
  414. Bit rate                                 : 739 b/s
  415. Count of elements                        : 56
  416. Stream size                              : 515 KiB (0%)
  417. Title                                    : French-FORCED-PGS
  418. Language                                 : French
  419. Default                                  : No
  420. Forced                                   : No

  421. Text #11
  422. ID                                       : 24
  423. Format                                   : PGS
  424. Muxing mode                              : zlib
  425. Codec ID                                 : S_HDMV/PGS
  426. Codec ID/Info                            : Picture based subtitle format used on BDs/HD-DVDs
  427. Duration                                 : 1 h 37 min
  428. Bit rate                                 : 44.1 kb/s
  429. Count of elements                        : 2594
  430. Stream size                              : 30.8 MiB (0%)
  431. Title                                    : French-PGS
  432. Language                                 : French
  433. Default                                  : No
  434. Forced                                   : No

  435. Text #12
  436. ID                                       : 25
  437. Format                                   : PGS
  438. Muxing mode                              : zlib
  439. Codec ID                                 : S_HDMV/PGS
  440. Codec ID/Info                            : Picture based subtitle format used on BDs/HD-DVDs
  441. Duration                                 : 1 h 35 min
  442. Bit rate                                 : 725 b/s
  443. Count of elements                        : 52
  444. Stream size                              : 505 KiB (0%)
  445. Title                                    : French-FORCED-PGS
  446. Language                                 : French
  447. Default                                  : No
  448. Forced                                   : No

  449. Text #13
  450. ID                                       : 26
  451. Format                                   : PGS
  452. Muxing mode                              : zlib
  453. Codec ID                                 : S_HDMV/PGS
  454. Codec ID/Info                            : Picture based subtitle format used on BDs/HD-DVDs
  455. Duration                                 : 1 h 37 min
  456. Bit rate                                 : 39.2 kb/s
  457. Count of elements                        : 2572
  458. Stream size                              : 27.4 MiB (0%)
  459. Title                                    : Italian-PGS
  460. Language                                 : Italian
  461. Default                                  : No
  462. Forced                                   : No

  463. Text #14
  464. ID                                       : 27
  465. Format                                   : PGS
  466. Muxing mode                              : zlib
  467. Codec ID                                 : S_HDMV/PGS
  468. Codec ID/Info                            : Picture based subtitle format used on BDs/HD-DVDs
  469. Duration                                 : 1 h 35 min
  470. Bit rate                                 : 759 b/s
  471. Count of elements                        : 56
  472. Stream size                              : 529 KiB (0%)
  473. Title                                    : Italian-FORCED-PGS
  474. Language                                 : Italian
  475. Default                                  : No
  476. Forced                                   : No

  477. Text #15
  478. ID                                       : 28
  479. Format                                   : PGS
  480. Muxing mode                              : zlib
  481. Codec ID                                 : S_HDMV/PGS
  482. Codec ID/Info                            : Picture based subtitle format used on BDs/HD-DVDs
  483. Duration                                 : 1 h 37 min
  484. Bit rate                                 : 34.5 kb/s
  485. Count of elements                        : 2466
  486. Stream size                              : 24.1 MiB (0%)
  487. Title                                    : Dutch-PGS
  488. Language                                 : Dutch
  489. Default                                  : No
  490. Forced                                   : No

  491. Text #16
  492. ID                                       : 29
  493. Format                                   : PGS
  494. Muxing mode                              : zlib
  495. Codec ID                                 : S_HDMV/PGS
  496. Codec ID/Info                            : Picture based subtitle format used on BDs/HD-DVDs
  497. Duration                                 : 1 h 37 min
  498. Bit rate                                 : 34.5 kb/s
  499. Count of elements                        : 2584
  500. Stream size                              : 24.1 MiB (0%)
  501. Title                                    : Norwegian-PGS
  502. Language                                 : Norwegian
  503. Default                                  : No
  504. Forced                                   : No

  505. Text #17
  506. ID                                       : 30
  507. Format                                   : PGS
  508. Muxing mode                              : zlib
  509. Codec ID                                 : S_HDMV/PGS
  510. Codec ID/Info                            : Picture based subtitle format used on BDs/HD-DVDs
  511. Duration                                 : 1 h 37 min
  512. Bit rate                                 : 36.5 kb/s
  513. Count of elements                        : 2510
  514. Stream size                              : 25.5 MiB (0%)
  515. Title                                    : Portuguese-PGS
  516. Language                                 : Portuguese
  517. Default                                  : No
  518. Forced                                   : No

  519. Text #18
  520. ID                                       : 31
  521. Format                                   : PGS
  522. Muxing mode                              : zlib
  523. Codec ID                                 : S_HDMV/PGS
  524. Codec ID/Info                            : Picture based subtitle format used on BDs/HD-DVDs
  525. Duration                                 : 1 h 35 min
  526. Bit rate                                 : 688 b/s
  527. Count of elements                        : 54
  528. Stream size                              : 480 KiB (0%)
  529. Title                                    : Portuguese-FORCED-PGS
  530. Language                                 : Portuguese
  531. Default                                  : No
  532. Forced                                   : No

  533. Text #19
  534. ID                                       : 32
  535. Format                                   : PGS
  536. Muxing mode                              : zlib
  537. Codec ID                                 : S_HDMV/PGS
  538. Codec ID/Info                            : Picture based subtitle format used on BDs/HD-DVDs
  539. Duration                                 : 1 h 37 min
  540. Bit rate                                 : 36.8 kb/s
  541. Count of elements                        : 2618
  542. Stream size                              : 25.7 MiB (0%)
  543. Title                                    : Finnish-PGS
  544. Language                                 : Finnish
  545. Default                                  : No
  546. Forced                                   : No

  547. Text #20
  548. ID                                       : 33
  549. Format                                   : PGS
  550. Muxing mode                              : zlib
  551. Codec ID                                 : S_HDMV/PGS
  552. Codec ID/Info                            : Picture based subtitle format used on BDs/HD-DVDs
  553. Duration                                 : 1 h 37 min
  554. Bit rate                                 : 36.1 kb/s
  555. Count of elements                        : 2578
  556. Stream size                              : 25.2 MiB (0%)
  557. Title                                    : Swedish-PGS
  558. Language                                 : Swedish
  559. Default                                  : No
  560. Forced                                   : No

  561. Text #21
  562. ID                                       : 34
  563. Format                                   : PGS
  564. Muxing mode                              : zlib
  565. Codec ID                                 : S_HDMV/PGS
  566. Codec ID/Info                            : Picture based subtitle format used on BDs/HD-DVDs
  567. Duration                                 : 1 h 17 min
  568. Bit rate                                 : 385 b/s
  569. Count of elements                        : 32
  570. Stream size                              : 220 KiB (0%)
  571. Title                                    : Swedish-FORCED-PGS
  572. Language                                 : Swedish
  573. Default                                  : No
  574. Forced                                   : No

  575. Text #22
  576. ID                                       : 35
  577. Format                                   : PGS
  578. Muxing mode                              : zlib
  579. Codec ID                                 : S_HDMV/PGS
  580. Codec ID/Info                            : Picture based subtitle format used on BDs/HD-DVDs
  581. Duration                                 : 1 h 38 min
  582. Bit rate                                 : 80.3 kb/s
  583. Count of elements                        : 4008
  584. Stream size                              : 56.6 MiB (0%)
  585. Title                                    : English-COMMENTARY-PGS
  586. Language                                 : English
  587. Default                                  : No
  588. Forced                                   : No

  589. Text #23
  590. ID                                       : 36
  591. Format                                   : PGS
  592. Muxing mode                              : zlib
  593. Codec ID                                 : S_HDMV/PGS
  594. Codec ID/Info                            : Picture based subtitle format used on BDs/HD-DVDs
  595. Duration                                 : 1 h 38 min
  596. Bit rate                                 : 71.0 kb/s
  597. Count of elements                        : 3938
  598. Stream size                              : 50.2 MiB (0%)
  599. Title                                    : Spanish-COMMENTARY-PGS
  600. Language                                 : Spanish
  601. Default                                  : No
  602. Forced                                   : No

  603. Text #24
  604. ID                                       : 37
  605. Format                                   : PGS
  606. Muxing mode                              : zlib
  607. Codec ID                                 : S_HDMV/PGS
  608. Codec ID/Info                            : Picture based subtitle format used on BDs/HD-DVDs
  609. Duration                                 : 1 h 38 min
  610. Bit rate                                 : 67.2 kb/s
  611. Count of elements                        : 4004
  612. Stream size                              : 47.4 MiB (0%)
  613. Title                                    : Spanish-COMMENTARY-PGS
  614. Language                                 : Spanish
  615. Default                                  : No
  616. Forced                                   : No

  617. Text #25
  618. ID                                       : 38
  619. Format                                   : PGS
  620. Muxing mode                              : zlib
  621. Codec ID                                 : S_HDMV/PGS
  622. Codec ID/Info                            : Picture based subtitle format used on BDs/HD-DVDs
  623. Duration                                 : 1 h 38 min
  624. Bit rate                                 : 66.1 kb/s
  625. Count of elements                        : 3956
  626. Stream size                              : 46.7 MiB (0%)
  627. Title                                    : French-COMMENTARY-PGS
  628. Language                                 : French
  629. Default                                  : No
  630. Forced                                   : No

  631. Text #26
  632. ID                                       : 39
  633. Format                                   : PGS
  634. Muxing mode                              : zlib
  635. Codec ID                                 : S_HDMV/PGS
  636. Codec ID/Info                            : Picture based subtitle format used on BDs/HD-DVDs
  637. Duration                                 : 1 h 38 min
  638. Bit rate                                 : 78.0 kb/s
  639. Count of elements                        : 3988
  640. Stream size                              : 55.1 MiB (0%)
  641. Title                                    : French-COMMENTARY-PGS
  642. Language                                 : French
  643. Default                                  : No
  644. Forced                                   : No

  645. Text #27
  646. ID                                       : 40
  647. Format                                   : PGS
  648. Muxing mode                              : zlib
  649. Codec ID                                 : S_HDMV/PGS
  650. Codec ID/Info                            : Picture based subtitle format used on BDs/HD-DVDs
  651. Duration                                 : 1 h 38 min
  652. Bit rate                                 : 64.8 kb/s
  653. Count of elements                        : 3992
  654. Stream size                              : 45.8 MiB (0%)
  655. Title                                    : Itlaian-COMMENTARY-PGS
  656. Language                                 : Italian
  657. Default                                  : No
  658. Forced                                   : No

  659. Text #28
  660. ID                                       : 41
  661. Format                                   : PGS
  662. Muxing mode                              : zlib
  663. Codec ID                                 : S_HDMV/PGS
  664. Codec ID/Info                            : Picture based subtitle format used on BDs/HD-DVDs
  665. Duration                                 : 1 h 38 min
  666. Bit rate                                 : 64.5 kb/s
  667. Count of elements                        : 3746
  668. Stream size                              : 45.6 MiB (0%)
  669. Title                                    : Portuguese-COMMENTARY-PGS
  670. Language                                 : Portuguese
  671. Default                                  : No
  672. Forced                                   : No

  673. Menu
  674. 00:00:00.000                             : en:Chapter 01
  675. 00:03:52.190                             : en:Chapter 02
  676. 00:09:32.989                             : en:Chapter 03
  677. 00:12:45.973                             : en:Chapter 04
  678. 00:18:09.421                             : en:Chapter 05
  679. 00:22:20.797                             : en:Chapter 06
  680. 00:27:33.693                             : en:Chapter 07
  681. 00:35:09.107                             : en:Chapter 08
  682. 00:41:37.328                             : en:Chapter 09
  683. 00:51:24.623                             : en:Chapter 10
  684. 01:01:04.827                             : en:Chapter 11
  685. 01:04:38.374                             : en:Chapter 12
  686. 01:10:20.341                             : en:Chapter 13
  687. 01:18:54.020                             : en:Chapter 14
  688. 01:25:38.716                             : en:Chapter 15
  689. 01:30:27.296                             : en:Chapter 16
复制代码


精彩剧照

刺猬索尼克/超音鼠大电影 Sonic.The.Hedgehog.2020.1080p.BluRay.REMUX.AVC.DTS-HD.MA.TrueHD.7.1.Atmos-FG ...

刺猬索尼克/超音鼠大电影 Sonic.The.Hedgehog.2020.1080p.BluRay.REMUX.AVC.DTS-HD.MA.TrueHD.7.1.Atmos-FG ...

刺猬索尼克/超音鼠大电影 Sonic.The.Hedgehog.2020.1080p.BluRay.REMUX.AVC.DTS-HD.MA.TrueHD.7.1.Atmos-FG ...

刺猬索尼克/超音鼠大电影 Sonic.The.Hedgehog.2020.1080p.BluRay.REMUX.AVC.DTS-HD.MA.TrueHD.7.1.Atmos-FG ...

刺猬索尼克/超音鼠大电影 Sonic.The.Hedgehog.2020.1080p.BluRay.REMUX.AVC.DTS-HD.MA.TrueHD.7.1.Atmos-FG ...

刺猬索尼克/超音鼠大电影 Sonic.The.Hedgehog.2020.1080p.BluRay.REMUX.AVC.DTS-HD.MA.TrueHD.7.1.Atmos-FG ...



蓝光高清网提示您 点击下方附件名称 马上开始下载

刺猬索尼克/超音鼠大电影 Sonic.The.Hedgehog.2020.1080p.BluRay.REMUX.AVC.DTS-HD.MA.TrueHD.7.1.Atmos-FGT 29.01GB
Sonic.The.Hedgehog.2020.1080p.BluRay.REMUX.AVC.DTS-HD.MA.TrueHD.7.1.Atmos-FGT.torrent 
         (73.11 KB    阅读权限: 0)
加入蓝光高清网VIP会员  无限制下载本站所有资源---点这里

资源下载、资源播放、字幕使用、无法下载等常见问题---点这里
回复

使用道具 举报

精彩评论1

梁生 发表于 2020-10-17 11:36:40 | 显示全部楼层

祝蓝光高清网越办越红火。
回复

使用道具 举报

您需要登录后才可以回帖 登录 | 立即注册

本版积分规则

关注0

粉丝1

帖子89799

发布主题
最新电影 论坛
本期活动
联系我们
点击这里联系客服

服务时间:
周一到周日8:00-23:30

  • 打开微信扫一扫
    关注公众号

  • 手机QQ扫一扫
    添加客服

手机版蓝光高清网 |网站地图

Powered by Discuz! X3.4 Licensed  © 2001-2013 Comsenz Inc.