梁山伯与祝英台
1080P高清
8.4
  • 年代: 更早
  • 国家/地区: 中国大陆 
  • 类型: 爱情 音乐 古装 
  • 音轨:DTS-HD Master 5.1 
  • 大小:21.31G
  • 字幕:内含简体中文
  • 导演: 李翰祥
  • 主演:凌波 / 乐蒂 / 任洁 / 井淼 / 高宝树
特别声明:本站提供的所有高清电影作品均是在网上搜集,任何涉及商业盈利目的均不得使用,否则产生的一切后果将由您自己承担!本站将不对本站的任何内容负任何法律责任!该下载内容仅做宽带测试使用,请在下载后24小时内删除。请购买正版! 本站所有资源均由网上收集而来,版权归原影音公司所有,如果侵犯了你的权益,请通知我们,我们会及时删除侵权内容.

梁山伯与祝英台[国语中字]1963.Blu-ray.AVC.1080p.DTS-HD.MA.5.1-Jsen 21.31G

[复制链接]
蓝鸟VIP会员 永久VIP 发表于 2019-1-28 17:00:09 | 显示全部楼层 |阅读模式 打印 上一主题 下一主题

马上注册,轻松下载,海量资源,让你轻松玩转社区。

您需要 登录 才可以下载或查看,没有帐号?立即注册

x
梁山伯与祝英台的剧情简介······# Q6 L- R' i1 @' G2 p# o
东晋末年,某大户人家小姐祝英台(乐蒂 饰)渴望前往杭城求学,无奈父亲不允,以致英台茶不思饭不想,忧郁成疾。未久,英台想出妙计,假扮郎中阐明小姐病因,终于令父亲点头同意。在求学途中,假扮男装的英台巧遇风流倜傥的梁山伯(凌波 饰)。二人相谈投机,结伴通行。三年同窗,英台和山伯结为好友,情深意笃,在朝夕相处的过程中,英台心中渐渐萌生对山伯的爱意。无奈碍于身份,不忍道破实情。某日,英台为父亲苦苦催还,只得告假还家,由此演出十八相送的经典戏码。虽是这般试探与暗示,那愚讷的心上儿却没能了知心意,一别成了永远……
: E) n! S: M3 `' a; q, q2 S1 R+ d本片根据中国经典民间故事改编,并荣获第二届金马奖最佳影片、最佳导演、最佳女主角(乐蒂)、最佳演技特别奖(凌波)等六项大奖。  q  E8 e& K$ H; U
梁山伯与祝英台[国语中字]1963.Blu-ray.AVC.1080p.DTS-HD.MA.5.1-Jsen 21.31G-1.jpg % t9 H% A) Q: E: z1 s6 b4 U6 u
DISC INFO:
6 g/ w5 {& P3 M1 oDisc Title: Liang.Shan.Bo.yu.Zhu.Ying.Tai.1963.BD.AVC.1080p.DTS-HDMA 5.1; T+ d3 z  c) @) Z1 I
Disc Size:  22,880,518,841 bytes1 E8 A. }& Y9 E: f; E
Protection: AACS
- r. `. b0 e: MBD-Java:  No
6 r. f4 ~. c/ X: ?BDInfo:   0.5.8
2 p# N- F% Q1 Y3 tPLAYLIST REPORT:' s; t. c" B$ R% Q
Name:       00001.MPLS" B3 A% I8 ]: Z$ b: n3 ~! F8 [! ~
Length:     2:06:11.647 (h:m:s.ms)
& |3 j/ n* R/ @" Y6 qSize:       20,915,030,016 bytes" v: R9 A8 V5 D5 P* @& o1 z  i
Total Bitrate:    22.10 Mbps( ~& S; i. `& [4 H; R$ Q6 J. \  z
VIDEO:4 V- [/ x2 t! l) `. B1 e# I: y: F6 ?
Codec       Bitrate     Description
6 w& y* [0 U$ X4 z, m( |—–       ——-     ———–7 ^, M6 R3 H0 q1 M: i
MPEG-4 AVC Video  17983 kbps    1080p / 23.976 fps / 16:9 / High Profile 4.1
, T' t% y" v% A) Z% t' o! a; P% bAUDIO:
. F2 l' y$ B2 n8 W) q! TCodec         Language  Bitrate   Description- v  |/ f, z8 o( Y/ f3 K# N
—–         ——–  ——-   ———–" F' Y9 R) x& L% d6 Q% R, p) H
DTS-HD Master Audio     Chinese   2117 kbps   5.1 / 48 kHz / 2117 kbps / 16-bit (DTS Core: 5.1 / 48 kHz / 1509 kbps / 16-bit)
7 G9 ]& s+ w0 S& P9 Z& P4 lDolby Digital Audio     Chinese   640 kbps  5.1 / 48 kHz / 640 kbps
, l- u! Q' S* T3 X$ {SUBTITLES:
/ f. m, ?: M$ e/ OCodec         Language  Bitrate   Description, C% Q, F' i/ ?6 c) M
—–         ——–  ——-   ———–- I" Z! \, U& s7 W# ^9 U8 N
Presentation Graphics   Chinese   24.675 kbps; L8 N: r0 r. i( L. [$ Y' q
Presentation Graphics   Chinese   22.262 kbps
3 q/ `2 C6 k7 j7 ?1 F) VPresentation Graphics   English   24.291 kbps9 e) ?5 G5 w5 N; b
FILES:
8 ^) j* Q) T' CName    Time In   Length    Size    Total Bitrate! o6 f- ]+ T5 ]
—-    ——-   ——    —-    ————-
; ?, M+ i8 @& _  p00003.M2TS  0:00:00.000 2:05:53.212 20,882,528,25622,1182 H, M# {( V; u% a
00015.M2TS  2:05:53.212 0:00:12.429 30,259,200  19,476
6 q, q% r9 l, A# Z00014.M2TS  2:06:05.641 0:00:06.005 2,242,560   2,987( K9 U7 A# Z% O3 t

/ E4 s5 P. d; D; h& X: D3 ]' S6 G 梁山伯与祝英台[国语中字]1963.Blu-ray.AVC.1080p.DTS-HD.MA.5.1-Jsen 21.31G-2.jpg 梁山伯与祝英台[国语中字]1963.Blu-ray.AVC.1080p.DTS-HD.MA.5.1-Jsen 21.31G-3.jpg 梁山伯与祝英台[国语中字]1963.Blu-ray.AVC.1080p.DTS-HD.MA.5.1-Jsen 21.31G-4.jpg 梁山伯与祝英台[国语中字]1963.Blu-ray.AVC.1080p.DTS-HD.MA.5.1-Jsen 21.31G-5.jpg
" a" |7 B; v2 }' E! A4 n; p

% a- c* _% i- G" O
/ \3 k. ~  m5 ?4 m9 E+ b
" B# J: R2 V9 u: k( w, p- a
梁山伯与祝英台[国语中字]1963.Blu-ray.AVC.1080p.DTS-HD.MA.5.1-Jsen.torrent (116.06 KB, 下载次数: 14)
&& empty()
QQ截图20190128165920.png

加入蓝光高清网VIP会员  无限制下载本站所有资源---点此加入

资源下载、资源播放、字幕使用、无法下载等常见问题---点这里

回复

使用道具 举报

精彩评论9

错觉 发表于 2019-3-12 21:01:09 | 显示全部楼层

; M, b* i9 D7 v, I, n& u! g找了好久 终于找到了  谢谢分享

加入蓝光高清网VIP会员  无限制下载本站所有资源---点此加入

资源下载、资源播放、字幕使用、无法下载等常见问题---点这里

回复

使用道具 举报

优音美影 发表于 2019-5-13 11:27:54 | 显示全部楼层

' S" ~1 _% p: w1 q% ~; E$ ~: Y社区不能没有像楼主这样的人才啊!

加入蓝光高清网VIP会员  无限制下载本站所有资源---点此加入

资源下载、资源播放、字幕使用、无法下载等常见问题---点这里

回复

使用道具 举报

heibai1008 发表于 2019-6-3 09:40:03 | 显示全部楼层
楼主发贴辛苦了,谢谢楼主分享!

加入蓝光高清网VIP会员  无限制下载本站所有资源---点此加入

资源下载、资源播放、字幕使用、无法下载等常见问题---点这里

回复

使用道具 举报

雨的承诺 发表于 2019-6-9 20:17:49 | 显示全部楼层
谢谢版主 希望坚持下去 好资源

加入蓝光高清网VIP会员  无限制下载本站所有资源---点此加入

资源下载、资源播放、字幕使用、无法下载等常见问题---点这里

回复

使用道具 举报

雨的承诺 发表于 2019-6-28 13:35:09 | 显示全部楼层
楼主发贴辛苦了

加入蓝光高清网VIP会员  无限制下载本站所有资源---点此加入

资源下载、资源播放、字幕使用、无法下载等常见问题---点这里

回复

使用道具 举报

weijuzhou 发表于 2019-7-8 13:44:48 | 显示全部楼层
中国的传统剧目,应该好好看看

加入蓝光高清网VIP会员  无限制下载本站所有资源---点此加入

资源下载、资源播放、字幕使用、无法下载等常见问题---点这里

回复

使用道具 举报

vlonescorpio 发表于 2019-7-21 22:18:29 | 显示全部楼层
谢谢楼主分享

加入蓝光高清网VIP会员  无限制下载本站所有资源---点此加入

资源下载、资源播放、字幕使用、无法下载等常见问题---点这里

回复

使用道具 举报

幽幽高手 发表于 2019-12-2 09:41:35 | 显示全部楼层

; [2 ~+ T' P5 K. q7 i# G; f* K好网站 希望越来越好

加入蓝光高清网VIP会员  无限制下载本站所有资源---点此加入

资源下载、资源播放、字幕使用、无法下载等常见问题---点这里

回复

使用道具 举报

道藏 发表于 2020-1-4 20:16:24 | 显示全部楼层
好网站 希望越来越好

加入蓝光高清网VIP会员  无限制下载本站所有资源---点此加入

资源下载、资源播放、字幕使用、无法下载等常见问题---点这里

回复

使用道具 举报

懒得打字嘛,点击右侧快捷回复
您需要登录后才可以回帖 登录 | 立即注册

本版积分规则

关注0

粉丝0

帖子71707

发布主题
最新电影 论坛
本期活动
联系我们
点击这里联系客服

服务时间:
周一到周日8:00-23:30

  • 打开微信扫一扫
    关注公众号

  • 手机QQ扫一扫
    添加客服

Archiver手机版蓝光高清网 ( 渝ICP备18006373号-2 )|网站地图

Powered by Discuz! X3.4  © 2001-2013 Comsenz Inc.