梁山伯与祝英台
1080P高清
8.4
  • 年代: 更早
  • 国家/地区: 中国大陆 
  • 类型: 爱情 音乐 古装 
  • 音轨:DTS-HD Master 5.1 
  • 大小:21.31G
  • 字幕:内含简体中文
  • 导演: 李翰祥
  • 主演:凌波 / 乐蒂 / 任洁 / 井淼 / 高宝树
特别声明:本站提供的所有高清电影作品均是在网上搜集,任何涉及商业盈利目的均不得使用,否则产生的一切后果将由您自己承担!本站将不对本站的任何内容负任何法律责任!该下载内容仅做宽带测试使用,请在下载后24小时内删除。请购买正版! 本站所有资源均由网上收集而来,版权归原影音公司所有,如果侵犯了你的权益,请通知我们,我们会及时删除侵权内容.

梁山伯与祝英台[国语中字]1963.Blu-ray.AVC.1080p.DTS-HD.MA.5.1-Jsen 21.31G

[复制链接]
蓝鸟VIP会员 永久VIP 发表于 2019-1-28 17:00:09 | 显示全部楼层 |阅读模式 打印 上一主题 下一主题

马上注册,轻松下载,海量资源,让你轻松玩转社区。

您需要 登录 才可以下载或查看,没有帐号?立即注册

x
梁山伯与祝英台的剧情简介······
7 h/ C7 L2 e) G, K; s3 A  r; N东晋末年,某大户人家小姐祝英台(乐蒂 饰)渴望前往杭城求学,无奈父亲不允,以致英台茶不思饭不想,忧郁成疾。未久,英台想出妙计,假扮郎中阐明小姐病因,终于令父亲点头同意。在求学途中,假扮男装的英台巧遇风流倜傥的梁山伯(凌波 饰)。二人相谈投机,结伴通行。三年同窗,英台和山伯结为好友,情深意笃,在朝夕相处的过程中,英台心中渐渐萌生对山伯的爱意。无奈碍于身份,不忍道破实情。某日,英台为父亲苦苦催还,只得告假还家,由此演出十八相送的经典戏码。虽是这般试探与暗示,那愚讷的心上儿却没能了知心意,一别成了永远……
, S1 @1 v( I) Y1 p" f; M本片根据中国经典民间故事改编,并荣获第二届金马奖最佳影片、最佳导演、最佳女主角(乐蒂)、最佳演技特别奖(凌波)等六项大奖。  a9 |, n2 X6 d
梁山伯与祝英台[国语中字]1963.Blu-ray.AVC.1080p.DTS-HD.MA.5.1-Jsen 21.31G-1.jpg
# V5 R) q) _! ^+ RDISC INFO:" V6 p4 B! S+ J! ~$ C. ^
Disc Title: Liang.Shan.Bo.yu.Zhu.Ying.Tai.1963.BD.AVC.1080p.DTS-HDMA 5.1
! g' h/ R/ Y8 A0 KDisc Size:  22,880,518,841 bytes
# J; Z. {7 J* J8 F2 mProtection: AACS
% B- k0 z" ]9 M1 R/ q- A7 fBD-Java:  No7 r% H* i: k0 Z/ `
BDInfo:   0.5.88 U. `: @6 w$ R* _, z
PLAYLIST REPORT:1 x( Y$ K" o' I( _0 {
Name:       00001.MPLS( I: G# n& J- g, ~& u* {1 T
Length:     2:06:11.647 (h:m:s.ms)
9 ]( t3 `+ d' |4 a3 s! \Size:       20,915,030,016 bytes' L% N+ u0 A. j& L
Total Bitrate:    22.10 Mbps
+ A  _& F; x/ R) g3 T# k% m' n7 xVIDEO:3 C- `) i4 w- G2 A5 F9 W9 s
Codec       Bitrate     Description
0 n5 D: X& |. Z& i3 S) W- v8 c4 g—–       ——-     ———–
# @1 z- O5 K, @- ?6 qMPEG-4 AVC Video  17983 kbps    1080p / 23.976 fps / 16:9 / High Profile 4.1' `7 ~# o; J) a! }7 D$ x
AUDIO:
& J8 R0 j! r3 F0 ^Codec         Language  Bitrate   Description
; n: N6 ~$ H6 d; V& W: j+ O—–         ——–  ——-   ———–) l$ E8 [5 j- C4 L, u
DTS-HD Master Audio     Chinese   2117 kbps   5.1 / 48 kHz / 2117 kbps / 16-bit (DTS Core: 5.1 / 48 kHz / 1509 kbps / 16-bit)
" Q2 ?  x' K9 V; b7 Q2 W* p) |Dolby Digital Audio     Chinese   640 kbps  5.1 / 48 kHz / 640 kbps; v! a% B5 {; h% q" D& p! v
SUBTITLES:' U, ]. V5 |! ^7 }' W
Codec         Language  Bitrate   Description
9 H: K5 N2 K; K% }# f( ~- O8 O! D—–         ——–  ——-   ———–
. D; N, @8 O( E! x% ?" A6 o0 iPresentation Graphics   Chinese   24.675 kbps
$ {4 Z0 d$ B: z1 FPresentation Graphics   Chinese   22.262 kbps. n( \% L' [! n" Z+ I7 D. o
Presentation Graphics   English   24.291 kbps2 j  ?  y" u. Z
FILES:6 U3 o6 ^5 F7 S( @* M. v0 T
Name    Time In   Length    Size    Total Bitrate
# V/ X& E+ o  _/ R3 }  G: R7 B—-    ——-   ——    —-    ————-; T8 u9 Q* E( @7 c
00003.M2TS  0:00:00.000 2:05:53.212 20,882,528,25622,118" Q$ I, a# d# ^# a8 m
00015.M2TS  2:05:53.212 0:00:12.429 30,259,200  19,476
, G9 R5 Z& q) t7 G$ i00014.M2TS  2:06:05.641 0:00:06.005 2,242,560   2,987
; X/ o, r1 W; j$ ^& P0 Q6 |! L/ [: [+ c3 p5 R- b8 L0 `  }9 v* T% c
梁山伯与祝英台[国语中字]1963.Blu-ray.AVC.1080p.DTS-HD.MA.5.1-Jsen 21.31G-2.jpg 梁山伯与祝英台[国语中字]1963.Blu-ray.AVC.1080p.DTS-HD.MA.5.1-Jsen 21.31G-3.jpg 梁山伯与祝英台[国语中字]1963.Blu-ray.AVC.1080p.DTS-HD.MA.5.1-Jsen 21.31G-4.jpg 梁山伯与祝英台[国语中字]1963.Blu-ray.AVC.1080p.DTS-HD.MA.5.1-Jsen 21.31G-5.jpg % o0 Q  Q8 P( F( j7 T# A; F
4 ^( J1 S+ g9 u0 S

# J/ c/ Q6 P2 |9 g" Z
5 g2 T' _; \) E9 h/ V7 a. U7 q
梁山伯与祝英台[国语中字]1963.Blu-ray.AVC.1080p.DTS-HD.MA.5.1-Jsen.torrent (116.06 KB, 下载次数: 12)
&& empty()
QQ截图20190128165920.png

加入蓝光高清网VIP会员  无限制下载本站所有资源---点此加入

资源下载、资源播放、字幕使用、无法下载等常见问题---点这里

回复

使用道具 举报

精彩评论8

错觉 发表于 2019-3-12 21:01:09 | 显示全部楼层
4 C* P! ^: q# f# K) W/ {5 A' O
找了好久 终于找到了  谢谢分享

加入蓝光高清网VIP会员  无限制下载本站所有资源---点此加入

资源下载、资源播放、字幕使用、无法下载等常见问题---点这里

回复

使用道具 举报

优音美影 发表于 2019-5-13 11:27:54 | 显示全部楼层
# v' G9 Z/ X% s1 p% r. O
社区不能没有像楼主这样的人才啊!

加入蓝光高清网VIP会员  无限制下载本站所有资源---点此加入

资源下载、资源播放、字幕使用、无法下载等常见问题---点这里

回复

使用道具 举报

heibai1008 发表于 2019-6-3 09:40:03 | 显示全部楼层
楼主发贴辛苦了,谢谢楼主分享!

加入蓝光高清网VIP会员  无限制下载本站所有资源---点此加入

资源下载、资源播放、字幕使用、无法下载等常见问题---点这里

回复

使用道具 举报

雨的承诺 发表于 2019-6-9 20:17:49 | 显示全部楼层
谢谢版主 希望坚持下去 好资源

加入蓝光高清网VIP会员  无限制下载本站所有资源---点此加入

资源下载、资源播放、字幕使用、无法下载等常见问题---点这里

回复

使用道具 举报

雨的承诺 发表于 2019-6-28 13:35:09 | 显示全部楼层
楼主发贴辛苦了

加入蓝光高清网VIP会员  无限制下载本站所有资源---点此加入

资源下载、资源播放、字幕使用、无法下载等常见问题---点这里

回复

使用道具 举报

weijuzhou 发表于 2019-7-8 13:44:48 | 显示全部楼层
中国的传统剧目,应该好好看看

加入蓝光高清网VIP会员  无限制下载本站所有资源---点此加入

资源下载、资源播放、字幕使用、无法下载等常见问题---点这里

回复

使用道具 举报

vlonescorpio 发表于 2019-7-21 22:18:29 | 显示全部楼层
谢谢楼主分享

加入蓝光高清网VIP会员  无限制下载本站所有资源---点此加入

资源下载、资源播放、字幕使用、无法下载等常见问题---点这里

回复

使用道具 举报

幽幽高手 发表于 5 天前 | 显示全部楼层

! x3 G5 C2 q: o3 f好网站 希望越来越好

加入蓝光高清网VIP会员  无限制下载本站所有资源---点此加入

资源下载、资源播放、字幕使用、无法下载等常见问题---点这里

回复

使用道具 举报

懒得打字嘛,点击右侧快捷回复
您需要登录后才可以回帖 登录 | 立即注册

本版积分规则

关注0

粉丝0

帖子69274

发布主题
最新电影 论坛
广告位
联系我们
点击这里联系客服

服务时间:
周一到周日8:00-23:30

  • 打开微信扫一扫
    关注公众号

  • 手机QQ扫一扫
    添加客服

Archiver手机版蓝光高清网 ( 渝ICP备18006373号-2 )|网站地图

Powered by Discuz! X3.4  © 2001-2013 Comsenz Inc.