梁山伯与祝英台
1080P高清
8.4
  • 年代: 更早
  • 国家/地区: 中国大陆 
  • 类型: 爱情 音乐 古装 
  • 音轨:DTS-HD Master 5.1 
  • 大小:21.31G
  • 字幕:内含简体中文
  • 导演: 李翰祥
  • 主演:凌波 / 乐蒂 / 任洁 / 井淼 / 高宝树
特别声明:本站提供的所有高清电影作品均是在网上搜集,任何涉及商业盈利目的均不得使用,否则产生的一切后果将由您自己承担!本站将不对本站的任何内容负任何法律责任!该下载内容仅做宽带测试使用,请在下载后24小时内删除。请购买正版! 本站所有资源均由网上收集而来,版权归原影音公司所有,如果侵犯了你的权益,请通知我们,我们会及时删除侵权内容.

梁山伯与祝英台[国语中字]1963.Blu-ray.AVC.1080p.DTS-HD.MA.5.1-Jsen 21.31G

[复制链接]
蓝鸟 发表于 2019-1-28 17:00:09 | 显示全部楼层 |阅读模式 打印 上一主题 下一主题
梁山伯与祝英台的剧情简介······
东晋末年,某大户人家小姐祝英台(乐蒂 饰)渴望前往杭城求学,无奈父亲不允,以致英台茶不思饭不想,忧郁成疾。未久,英台想出妙计,假扮郎中阐明小姐病因,终于令父亲点头同意。在求学途中,假扮男装的英台巧遇风流倜傥的梁山伯(凌波 饰)。二人相谈投机,结伴通行。三年同窗,英台和山伯结为好友,情深意笃,在朝夕相处的过程中,英台心中渐渐萌生对山伯的爱意。无奈碍于身份,不忍道破实情。某日,英台为父亲苦苦催还,只得告假还家,由此演出十八相送的经典戏码。虽是这般试探与暗示,那愚讷的心上儿却没能了知心意,一别成了永远……
本片根据中国经典民间故事改编,并荣获第二届金马奖最佳影片、最佳导演、最佳女主角(乐蒂)、最佳演技特别奖(凌波)等六项大奖。
梁山伯与祝英台[国语中字]1963.Blu-ray.AVC.1080p.DTS-HD.MA.5.1-Jsen 21.31G-1.jpg
DISC INFO:
Disc Title: Liang.Shan.Bo.yu.Zhu.Ying.Tai.1963.BD.AVC.1080p.DTS-HDMA 5.1
Disc Size:  22,880,518,841 bytes
Protection: AACS
BD-Java:  No
BDInfo:   0.5.8
PLAYLIST REPORT:
Name:       00001.MPLS
Length:     2:06:11.647 (h:m:s.ms)
Size:       20,915,030,016 bytes
Total Bitrate:    22.10 Mbps
VIDEO:
Codec       Bitrate     Description
—–       ——-     ———–
MPEG-4 AVC Video  17983 kbps    1080p / 23.976 fps / 16:9 / High Profile 4.1
AUDIO:
Codec         Language  Bitrate   Description
—–         ——–  ——-   ———–
DTS-HD Master Audio     Chinese   2117 kbps   5.1 / 48 kHz / 2117 kbps / 16-bit (DTS Core: 5.1 / 48 kHz / 1509 kbps / 16-bit)
Dolby Digital Audio     Chinese   640 kbps  5.1 / 48 kHz / 640 kbps
SUBTITLES:
Codec         Language  Bitrate   Description
—–         ——–  ——-   ———–
Presentation Graphics   Chinese   24.675 kbps
Presentation Graphics   Chinese   22.262 kbps
Presentation Graphics   English   24.291 kbps
FILES:
Name    Time In   Length    Size    Total Bitrate
—-    ——-   ——    —-    ————-
00003.M2TS  0:00:00.000 2:05:53.212 20,882,528,25622,118
00015.M2TS  2:05:53.212 0:00:12.429 30,259,200  19,476
00014.M2TS  2:06:05.641 0:00:06.005 2,242,560   2,987

梁山伯与祝英台[国语中字]1963.Blu-ray.AVC.1080p.DTS-HD.MA.5.1-Jsen 21.31G-2.jpg 梁山伯与祝英台[国语中字]1963.Blu-ray.AVC.1080p.DTS-HD.MA.5.1-Jsen 21.31G-3.jpg 梁山伯与祝英台[国语中字]1963.Blu-ray.AVC.1080p.DTS-HD.MA.5.1-Jsen 21.31G-4.jpg 梁山伯与祝英台[国语中字]1963.Blu-ray.AVC.1080p.DTS-HD.MA.5.1-Jsen 21.31G-5.jpg



梁山伯与祝英台[国语中字]1963.Blu-ray.AVC.1080p.DTS-HD.MA.5.1-Jsen.torrent 
         (116.06 KB    阅读权限: 0)
&& empty()
QQ截图20190128165920.png
加入蓝光高清网VIP会员  无限制下载本站所有资源---点这里

资源下载、资源播放、字幕使用、无法下载等常见问题---点这里
回复

使用道具 举报

精彩评论10

错觉 发表于 2019-3-12 21:01:09 | 显示全部楼层

找了好久 终于找到了  谢谢分享
回复

使用道具 举报

优音美影 发表于 2019-5-13 11:27:54 | 显示全部楼层

社区不能没有像楼主这样的人才啊!
回复

使用道具 举报

heibai1008 发表于 2019-6-3 09:40:03 | 显示全部楼层
楼主发贴辛苦了,谢谢楼主分享!
回复

使用道具 举报

雨的承诺 发表于 2019-6-9 20:17:49 | 显示全部楼层
谢谢版主 希望坚持下去 好资源
回复

使用道具 举报

雨的承诺 发表于 2019-6-28 13:35:09 | 显示全部楼层
楼主发贴辛苦了
回复

使用道具 举报

weijuzhou 发表于 2019-7-8 13:44:48 | 显示全部楼层
中国的传统剧目,应该好好看看
回复

使用道具 举报

vlonescorpio 发表于 2019-7-21 22:18:29 | 显示全部楼层
谢谢楼主分享
回复

使用道具 举报

幽幽高手 发表于 2019-12-2 09:41:35 | 显示全部楼层

好网站 希望越来越好
回复

使用道具 举报

道藏 发表于 2020-1-4 20:16:24 | 显示全部楼层
好网站 希望越来越好
回复

使用道具 举报

您需要登录后才可以回帖 登录 | 立即注册

本版积分规则

关注0

粉丝1

帖子89662

发布主题
最新电影 论坛
本期活动
联系我们
点击这里联系客服

服务时间:
周一到周日8:00-23:30

  • 打开微信扫一扫
    关注公众号

  • 手机QQ扫一扫
    添加客服

手机版蓝光高清网 |网站地图

Powered by Discuz! X3.4 Licensed  © 2001-2013 Comsenz Inc.