梁山伯与祝英台
1080P高清
8.4
  • 年代: 更早
  • 国家/地区: 中国大陆 
  • 类型: 爱情 音乐 古装 
  • 音轨:DTS-HD Master 5.1 
  • 大小:21.31G
  • 字幕:内含简体中文
  • 导演: 李翰祥
  • 主演:凌波 / 乐蒂 / 任洁 / 井淼 / 高宝树
特别声明:本站提供的所有高清电影作品均是在网上搜集,任何涉及商业盈利目的均不得使用,否则产生的一切后果将由您自己承担!本站将不对本站的任何内容负任何法律责任!该下载内容仅做宽带测试使用,请在下载后24小时内删除。请购买正版! 本站所有资源均由网上收集而来,版权归原影音公司所有,如果侵犯了你的权益,请通知我们,我们会及时删除侵权内容.

梁山伯与祝英台[国语中字]1963.Blu-ray.AVC.1080p.DTS-HD.MA.5.1-Jsen 21.31G

[复制链接]
蓝鸟VIP会员 永久VIP 发表于 2019-1-28 17:00:09 | 显示全部楼层 |阅读模式 打印 上一主题 下一主题

马上注册,轻松下载,海量资源,让你轻松玩转社区。

您需要 登录 才可以下载或查看,没有帐号?立即注册

x
梁山伯与祝英台的剧情简介······$ P, u. X) t3 @# B- Y+ P
东晋末年,某大户人家小姐祝英台(乐蒂 饰)渴望前往杭城求学,无奈父亲不允,以致英台茶不思饭不想,忧郁成疾。未久,英台想出妙计,假扮郎中阐明小姐病因,终于令父亲点头同意。在求学途中,假扮男装的英台巧遇风流倜傥的梁山伯(凌波 饰)。二人相谈投机,结伴通行。三年同窗,英台和山伯结为好友,情深意笃,在朝夕相处的过程中,英台心中渐渐萌生对山伯的爱意。无奈碍于身份,不忍道破实情。某日,英台为父亲苦苦催还,只得告假还家,由此演出十八相送的经典戏码。虽是这般试探与暗示,那愚讷的心上儿却没能了知心意,一别成了永远……( h- z$ c- n- C, H4 O
本片根据中国经典民间故事改编,并荣获第二届金马奖最佳影片、最佳导演、最佳女主角(乐蒂)、最佳演技特别奖(凌波)等六项大奖。% Z% L- W# C7 G. B* A; y( d3 d
梁山伯与祝英台[国语中字]1963.Blu-ray.AVC.1080p.DTS-HD.MA.5.1-Jsen 21.31G-1.jpg
9 ?# s- h+ A4 q4 YDISC INFO:
, q8 I( L: T: n7 T7 rDisc Title: Liang.Shan.Bo.yu.Zhu.Ying.Tai.1963.BD.AVC.1080p.DTS-HDMA 5.14 M: K- d; D4 e/ S
Disc Size:  22,880,518,841 bytes
3 j1 V" Q' z- s5 j" P* l  @" [Protection: AACS
7 ^4 H2 @/ v. n6 Q2 p: HBD-Java:  No
) r/ N7 y; a5 G5 _BDInfo:   0.5.88 t6 a0 K3 L9 M3 l# ?9 I
PLAYLIST REPORT:
6 Y. q  l6 {2 j4 k9 p( M: EName:       00001.MPLS
4 o2 f0 k* U# v( HLength:     2:06:11.647 (h:m:s.ms)9 `/ F, f7 @1 L7 {. V0 X  D" e
Size:       20,915,030,016 bytes
( A$ z$ n1 [; S6 h$ D4 m" M8 FTotal Bitrate:    22.10 Mbps
2 n/ P9 C! p( d: NVIDEO:! y* ~/ n& U& m! a% i6 ^( l
Codec       Bitrate     Description$ J6 t0 a& }; l$ _1 u# p
—–       ——-     ———–
4 {$ m* m0 m) u+ I$ eMPEG-4 AVC Video  17983 kbps    1080p / 23.976 fps / 16:9 / High Profile 4.1
- c6 K5 v! p  a: Q0 Q3 a! ~AUDIO:
& Y8 }1 X+ A, a, t5 Y5 {9 wCodec         Language  Bitrate   Description
. {6 ^+ P( p) ]. I& g- I: Y- u$ K) d—–         ——–  ——-   ———–
; l4 H0 X% R. XDTS-HD Master Audio     Chinese   2117 kbps   5.1 / 48 kHz / 2117 kbps / 16-bit (DTS Core: 5.1 / 48 kHz / 1509 kbps / 16-bit)
( X: N: F1 v& b/ o" `  t& f: nDolby Digital Audio     Chinese   640 kbps  5.1 / 48 kHz / 640 kbps
3 G/ i$ S* O% w! `3 a0 MSUBTITLES:" n* G. ^8 ^: [: n( h& {
Codec         Language  Bitrate   Description. b. b  ]! D( h* A  ^/ q7 c' a
—–         ——–  ——-   ———–
4 W4 E3 v  I, {$ K0 lPresentation Graphics   Chinese   24.675 kbps
4 y' L: ~. f) V) \+ `Presentation Graphics   Chinese   22.262 kbps
) ]. a, M; w$ y/ v' KPresentation Graphics   English   24.291 kbps% k1 G5 i' ]! s
FILES:2 z% p: m9 H) A# O1 V4 l2 w
Name    Time In   Length    Size    Total Bitrate+ ]( O! j6 @3 x: w* H6 J
—-    ——-   ——    —-    ————-$ z- B- v2 P0 q0 w
00003.M2TS  0:00:00.000 2:05:53.212 20,882,528,25622,118, S6 K) a2 `# W
00015.M2TS  2:05:53.212 0:00:12.429 30,259,200  19,476
1 O" ^7 ?8 N1 y$ T00014.M2TS  2:06:05.641 0:00:06.005 2,242,560   2,987
' {, m7 B, N  p( e; C& `, q+ U# n% ~+ E3 f4 T& i$ B
梁山伯与祝英台[国语中字]1963.Blu-ray.AVC.1080p.DTS-HD.MA.5.1-Jsen 21.31G-2.jpg 梁山伯与祝英台[国语中字]1963.Blu-ray.AVC.1080p.DTS-HD.MA.5.1-Jsen 21.31G-3.jpg 梁山伯与祝英台[国语中字]1963.Blu-ray.AVC.1080p.DTS-HD.MA.5.1-Jsen 21.31G-4.jpg 梁山伯与祝英台[国语中字]1963.Blu-ray.AVC.1080p.DTS-HD.MA.5.1-Jsen 21.31G-5.jpg
  h2 h( ^) Q# j/ w0 K

) b; U. I6 `* X0 B- _# d4 K# a' L

$ l7 J5 O, e- x9 S 梁山伯与祝英台[国语中字]1963.Blu-ray.AVC.1080p.DTS-HD.MA.5.1-Jsen.torrent (116.06 KB, 下载次数: 8)
&& empty()
QQ截图20190128165920.png
限时活动!!本月底截止,仅需9.9元/月加入VIP会员即可随心下载本站所有资源---点此了解
资源下载、资源播放、字幕使用、无法下载等常见问题---点这里
回复

使用道具 举报

精彩评论7

错觉 发表于 2019-3-12 21:01:09 | 显示全部楼层

; [1 i) ^7 ]7 ?4 R找了好久 终于找到了  谢谢分享
限时活动!!本月底截止,仅需9.9元/月加入VIP会员即可随心下载本站所有资源---点此了解
资源下载、资源播放、字幕使用、无法下载等常见问题---点这里
回复

使用道具 举报

优音美影 发表于 2019-5-13 11:27:54 | 显示全部楼层
# l$ k9 K6 f# d' _, C% l
社区不能没有像楼主这样的人才啊!
限时活动!!本月底截止,仅需9.9元/月加入VIP会员即可随心下载本站所有资源---点此了解
资源下载、资源播放、字幕使用、无法下载等常见问题---点这里
回复

使用道具 举报

heibai1008 发表于 2019-6-3 09:40:03 | 显示全部楼层
楼主发贴辛苦了,谢谢楼主分享!
限时活动!!本月底截止,仅需9.9元/月加入VIP会员即可随心下载本站所有资源---点此了解
资源下载、资源播放、字幕使用、无法下载等常见问题---点这里
回复

使用道具 举报

雨的承诺 发表于 2019-6-9 20:17:49 | 显示全部楼层
谢谢版主 希望坚持下去 好资源
限时活动!!本月底截止,仅需9.9元/月加入VIP会员即可随心下载本站所有资源---点此了解
资源下载、资源播放、字幕使用、无法下载等常见问题---点这里
回复

使用道具 举报

雨的承诺 发表于 2019-6-28 13:35:09 | 显示全部楼层
楼主发贴辛苦了
限时活动!!本月底截止,仅需9.9元/月加入VIP会员即可随心下载本站所有资源---点此了解
资源下载、资源播放、字幕使用、无法下载等常见问题---点这里
回复

使用道具 举报

weijuzhou 发表于 2019-7-8 13:44:48 | 显示全部楼层
中国的传统剧目,应该好好看看
限时活动!!本月底截止,仅需9.9元/月加入VIP会员即可随心下载本站所有资源---点此了解
资源下载、资源播放、字幕使用、无法下载等常见问题---点这里
回复

使用道具 举报

vlonescorpio 发表于 2019-7-21 22:18:29 | 显示全部楼层
谢谢楼主分享
限时活动!!本月底截止,仅需9.9元/月加入VIP会员即可随心下载本站所有资源---点此了解
资源下载、资源播放、字幕使用、无法下载等常见问题---点这里
回复

使用道具 举报

懒得打字嘛,点击右侧快捷回复
您需要登录后才可以回帖 登录 | 立即注册

本版积分规则

关注0

粉丝0

帖子10843

发布主题
最新电影 论坛
广告位
Empty Ads

Archiver手机版蓝光高清网 ( 渝ICP备18006373号-2 )|网站地图

Powered by Discuz! X3.4  © 2001-2013 Comsenz Inc.