[喜剧] 魔掌/闲旷之手 Idle.Hands.1999.UMBRELLA.1080p.BluRay.x264.DTS-MaG 9.79GB

[复制链接]
蓝鸟 发表于 2020-5-24 06:58:40 | 显示全部楼层 |阅读模式 打印 上一主题 下一主题

魔掌/闲旷之手 Idle.Hands.1999.UMBRELLA.1080p.BluRay.x264.DTS-MaG 9.79GB

魔掌/闲旷之手 Idle.Hands.1999.UMBRELLA.1080p.BluRay.x264.DTS-MaG 9.79GB


译  名 魔掌 / 闲旷之手
片  名 Idle Hands
年  代 1999
产  地 美国
类  别 喜剧 / 惊悚 / 恐怖
语  言 英语
上映日期 1999-04-30
IMDb评分  6.2/10 from 38517 users
IMDb链接  https://www.imdb.com/title/tt0138510
豆瓣评分 6.5/10 from 445 users
豆瓣链接 https://movie.douban.com/subject/1292639/
片  长 90 分钟
导  演 Rodman Flender
编  剧 Terri Hughes / Ron Milbauer
主  演 Vivica A. Fox
       Jessica Alba
       Elden Henson
       Devon Sawa
       Seth Green


标  签 恐怖 | 喜剧 | 美国 | 1999 | 恐怖电影 | 我看过的恐怖电影 | Jessica_Alba | 我看过的电影

简  介  

  17岁的小青年安东(Devon Sawa 饰)懒惰非常,每天最大的爱好就是吃吃喝喝看电视,或者打打漂亮女邻居莫莉(Jessica Alba 杰茜卡?阿尔巴 饰)的歪主意。
  某个万圣节的早上,他一觉醒来发现父母竟变成了没有脑袋的万圣节玩偶!不久,好友米克(Seth Green 饰)和帕布(Elden Henson 饰)更死在他的手上。安东意识到,自己遇见了真正的恶魔,并且恶魔附身自己的手中,为所欲为,无恶不作。安东发现魔手的下一个目标正是莫莉,为了拯救心爱的女孩,他和从地狱返回德米克、帕布联合,与恶魔展开了较量……


该资源信息参数
  1. Video
  2. ID                                       : 1
  3. Format                                   : AVC
  4. Format/Info                              : Advanced Video Codec
  5. Format profile                           : High@L4
  6. Format settings                          : CABAC / 4 Ref Frames
  7. Format settings, CABAC                   : Yes
  8. Format settings, Reference frames        : 4 frames
  9. Codec ID                                 : V_MPEG4/ISO/AVC
  10. Duration                                 : 1 h 32 min
  11. Bit rate                                 : 13.7 Mb/s
  12. Width                                    : 1 920 pixels
  13. Height                                   : 1 040 pixels
  14. Display aspect ratio                     : 1.85:1
  15. Frame rate mode                          : Constant
  16. Frame rate                               : 23.976 (24000/1001/189150) FPS
  17. Color space                              : YUV
  18. Chroma subsampling                       : 4:2:0
  19. Bit depth                                : 8 bits
  20. Scan type                                : Progressive
  21. Bits/(Pixel*Frame)                       : 0.286
  22. Stream size                              : 8.82 GiB (90%)
  23. Writing library                          : x264 core 157 r2935 545de2f
  24. Encoding settings                        : cabac=1 / ref=4 / deblock=1:-3:-3 / analyse=0x3:0x133 / me=umh / subme=9 / psy=1 / psy_rd=1.00:0.00 / mixed_ref=1 / me_range=32 / chroma_me=1 / trellis=2 / 8x8dct=1 / cqm=0 / deadzone=21,11 / fast_pskip=0 / chroma_qp_offset=-2 / threads=24 / lookahead_threads=4 / sliced_threads=0 / nr=0 / decimate=1 / interlaced=0 / bluray_compat=0 / constrained_intra=0 / bframes=8 / b_pyramid=2 / b_adapt=2 / b_bias=0 / direct=3 / weightb=1 / open_gop=0 / weightp=2 / keyint=240 / keyint_min=24 / scenecut=40 / intra_refresh=0 / rc_lookahead=60 / rc=crf / mbtree=1 / crf=22.0 / qcomp=0.80 / qpmin=0 / qpmax=69 / qpstep=4 / vbv_maxrate=62500 / vbv_bufsize=78125 / crf_max=0.0 / nal_hrd=none / filler=0 / ip_ratio=1.40 / aq=3:1.00
  25. Default                                  : Yes
  26. Forced                                   : No
  27. Color range                              : Limited
  28. Color primaries                          : BT.709
  29. Transfer characteristics                 : BT.709
  30. Matrix coefficients                      : BT.709

  31. Audio
  32. ID                                       : 2
  33. Format                                   : DTS
  34. Format/Info                              : Digital Theater Systems
  35. Codec ID                                 : A_DTS
  36. Duration                                 : 1 h 32 min
  37. Bit rate mode                            : Constant
  38. Bit rate                                 : 1 509 kb/s
  39. Channel(s)                               : 6 channels
  40. Channel layout                           : C L R Ls Rs LFE
  41. Sampling rate                            : 48.0 kHz
  42. Frame rate                               : 93.750 FPS (512 SPF)
  43. Bit depth                                : 24 bits
  44. Compression mode                         : Lossy
  45. Stream size                              : 994 MiB (10%)
  46. Title                                    : DTS 5.1 Audio (Umbrella Blu-ray)
  47. Language                                 : English
  48. Default                                  : Yes
  49. Forced                                   : No

  50. Text #1
  51. ID                                       : 3
  52. Format                                   : UTF-8
  53. Codec ID                                 : S_TEXT/UTF8
  54. Codec ID/Info                            : UTF-8 Plain Text
  55. Duration                                 : 1 h 31 min
  56. Bit rate                                 : 53 b/s
  57. Count of elements                        : 1395
  58. Stream size                              : 36.2 KiB (0%)
  59. Title                                    : SDH
  60. Language                                 : English
  61. Default                                  : Yes
  62. Forced                                   : No

  63. Text #2
  64. ID                                       : 4
  65. Format                                   : UTF-8
  66. Codec ID                                 : S_TEXT/UTF8
  67. Codec ID/Info                            : UTF-8 Plain Text
  68. Duration                                 : 1 h 28 min
  69. Bit rate                                 : 51 b/s
  70. Count of elements                        : 874
  71. Stream size                              : 33.4 KiB (0%)
  72. Language                                 : Arabic
  73. Default                                  : No
  74. Forced                                   : No

  75. Text #3
  76. ID                                       : 5
  77. Format                                   : UTF-8
  78. Codec ID                                 : S_TEXT/UTF8
  79. Codec ID/Info                            : UTF-8 Plain Text
  80. Duration                                 : 1 h 29 min
  81. Bit rate                                 : 40 b/s
  82. Count of elements                        : 878
  83. Stream size                              : 26.2 KiB (0%)
  84. Title                                    : Brazilian
  85. Language                                 : Portuguese
  86. Default                                  : No
  87. Forced                                   : No

  88. Text #4
  89. ID                                       : 6
  90. Format                                   : UTF-8
  91. Codec ID                                 : S_TEXT/UTF8
  92. Codec ID/Info                            : UTF-8 Plain Text
  93. Duration                                 : 1 h 29 min
  94. Bit rate                                 : 30 b/s
  95. Count of elements                        : 580
  96. Stream size                              : 20.1 KiB (0%)
  97. Language                                 : Danish
  98. Default                                  : No
  99. Forced                                   : No

  100. Text #5
  101. ID                                       : 7
  102. Format                                   : UTF-8
  103. Codec ID                                 : S_TEXT/UTF8
  104. Codec ID/Info                            : UTF-8 Plain Text
  105. Duration                                 : 1 h 26 min
  106. Bit rate                                 : 39 b/s
  107. Count of elements                        : 953
  108. Stream size                              : 25.3 KiB (0%)
  109. Language                                 : English
  110. Default                                  : No
  111. Forced                                   : No

  112. Text #6
  113. ID                                       : 8
  114. Format                                   : UTF-8
  115. Codec ID                                 : S_TEXT/UTF8
  116. Codec ID/Info                            : UTF-8 Plain Text
  117. Duration                                 : 1 h 29 min
  118. Bit rate                                 : 32 b/s
  119. Count of elements                        : 575
  120. Stream size                              : 21.2 KiB (0%)
  121. Language                                 : Finnish
  122. Default                                  : No
  123. Forced                                   : No

  124. Text #7
  125. ID                                       : 9
  126. Format                                   : UTF-8
  127. Codec ID                                 : S_TEXT/UTF8
  128. Codec ID/Info                            : UTF-8 Plain Text
  129. Duration                                 : 1 h 31 min
  130. Bit rate                                 : 38 b/s
  131. Count of elements                        : 750
  132. Stream size                              : 25.6 KiB (0%)
  133. Language                                 : French
  134. Default                                  : No
  135. Forced                                   : No

  136. Text #8
  137. ID                                       : 10
  138. Format                                   : UTF-8
  139. Codec ID                                 : S_TEXT/UTF8
  140. Codec ID/Info                            : UTF-8 Plain Text
  141. Duration                                 : 1 h 26 min
  142. Bit rate                                 : 59 b/s
  143. Count of elements                        : 837
  144. Stream size                              : 38.0 KiB (0%)
  145. Language                                 : Greek
  146. Default                                  : No
  147. Forced                                   : No

  148. Text #9
  149. ID                                       : 11
  150. Format                                   : UTF-8
  151. Codec ID                                 : S_TEXT/UTF8
  152. Codec ID/Info                            : UTF-8 Plain Text
  153. Duration                                 : 1 h 29 min
  154. Bit rate                                 : 30 b/s
  155. Count of elements                        : 575
  156. Stream size                              : 19.9 KiB (0%)
  157. Language                                 : Norwegian
  158. Default                                  : No
  159. Forced                                   : No

  160. Text #10
  161. ID                                       : 12
  162. Format                                   : UTF-8
  163. Codec ID                                 : S_TEXT/UTF8
  164. Codec ID/Info                            : UTF-8 Plain Text
  165. Duration                                 : 1 h 26 min
  166. Bit rate                                 : 32 b/s
  167. Count of elements                        : 872
  168. Stream size                              : 20.3 KiB (0%)
  169. Language                                 : Polish
  170. Default                                  : No
  171. Forced                                   : No

  172. Text #11
  173. ID                                       : 13
  174. Format                                   : UTF-8
  175. Codec ID                                 : S_TEXT/UTF8
  176. Codec ID/Info                            : UTF-8 Plain Text
  177. Duration                                 : 1 h 29 min
  178. Bit rate                                 : 39 b/s
  179. Count of elements                        : 878
  180. Stream size                              : 25.7 KiB (0%)
  181. Language                                 : Portuguese
  182. Default                                  : No
  183. Forced                                   : No

  184. Text #12
  185. ID                                       : 14
  186. Format                                   : UTF-8
  187. Codec ID                                 : S_TEXT/UTF8
  188. Codec ID/Info                            : UTF-8 Plain Text
  189. Duration                                 : 1 h 26 min
  190. Bit rate                                 : 39 b/s
  191. Count of elements                        : 866
  192. Stream size                              : 24.8 KiB (0%)
  193. Language                                 : Romanian
  194. Default                                  : No
  195. Forced                                   : No

  196. Text #13
  197. ID                                       : 15
  198. Format                                   : UTF-8
  199. Codec ID                                 : S_TEXT/UTF8
  200. Codec ID/Info                            : UTF-8 Plain Text
  201. Duration                                 : 1 h 26 min
  202. Bit rate                                 : 31 b/s
  203. Count of elements                        : 873
  204. Stream size                              : 20.0 KiB (0%)
  205. Language                                 : Slovenian
  206. Default                                  : No
  207. Forced                                   : No

  208. Text #14
  209. ID                                       : 16
  210. Format                                   : UTF-8
  211. Codec ID                                 : S_TEXT/UTF8
  212. Codec ID/Info                            : UTF-8 Plain Text
  213. Duration                                 : 1 h 28 min
  214. Bit rate                                 : 36 b/s
  215. Count of elements                        : 879
  216. Stream size                              : 23.4 KiB (0%)
  217. Language                                 : Spanish
  218. Default                                  : No
  219. Forced                                   : No

  220. Text #15
  221. ID                                       : 17
  222. Format                                   : UTF-8
  223. Codec ID                                 : S_TEXT/UTF8
  224. Codec ID/Info                            : UTF-8 Plain Text
  225. Duration                                 : 1 h 29 min
  226. Bit rate                                 : 32 b/s
  227. Count of elements                        : 575
  228. Stream size                              : 21.0 KiB (0%)
  229. Language                                 : Swedish
  230. Default                                  : No
  231. Forced                                   : No

  232. Menu
  233. 00:00:00.000                             : en:Opening Credits
  234. 00:02:33.656                             : I\"m Under the Bed
  235. 00:08:23.170                             : Home Alone
  236. 00:10:03.646                             : Mick & Pnub
  237. 00:15:27.467                             : Crime Pattern
  238. 00:17:12.033                             : Bolan\"s Finest
  239. 00:22:23.260                             : Family Reunion
  240. 00:24:24.173                             : A Clue
  241. 00:27:08.170                             : "I\"m the Killer."
  242. 00:34:44.627                             : Dangerous
  243. 00:38:31.937                             : Burial Service
  244. 00:40:04.321                             : Undead
  245. 00:41:58.472                             : No Dream
  246. 00:44:42.725                             : Randy
  247. 00:49:14.497                             : Heroes & Villians
  248. 00:52:19.473                             : The Answer
  249. 00:54:49.081                             : Bad Move, Anton
  250. 01:02:12.608                             : Debi\"s Mission
  251. 01:08:39.745                             : The Halloween Dance
  252. 01:10:43.786                             : Kissed Off
  253. 01:12:46.117                             : Giving Tidwell a Hand
  254. 01:14:34.725                             : "Die!!!"
  255. 01:16:34.845                             : Six to Midnight
  256. 01:19:28.310                             : Hanging with Tanya
  257. 01:20:48.224                             : Great Escape
  258. 01:22:25.571                             : Autoshop Showdown
  259. 01:27:12.549                             : Guardian Angels
  260. 01:29:03.880                             : Ending Credits
复制代码


精彩剧照

魔掌/闲旷之手 Idle.Hands.1999.UMBRELLA.1080p.BluRay.x264.DTS-MaG 9.79GB

魔掌/闲旷之手 Idle.Hands.1999.UMBRELLA.1080p.BluRay.x264.DTS-MaG 9.79GB

魔掌/闲旷之手 Idle.Hands.1999.UMBRELLA.1080p.BluRay.x264.DTS-MaG 9.79GB

魔掌/闲旷之手 Idle.Hands.1999.UMBRELLA.1080p.BluRay.x264.DTS-MaG 9.79GB

魔掌/闲旷之手 Idle.Hands.1999.UMBRELLA.1080p.BluRay.x264.DTS-MaG 9.79GB

魔掌/闲旷之手 Idle.Hands.1999.UMBRELLA.1080p.BluRay.x264.DTS-MaG 9.79GB



蓝光高清网提示您 点击下方附件名称 马上开始下载

魔掌/闲旷之手 Idle.Hands.1999.UMBRELLA.1080p.BluRay.x264.DTS-MaG 9.79GB
Idle.Hands.1999.UMBRELLA.1080p.BluRay.x264.DTS-MaG.torrent 
         (49.49 KB    阅读权限: 0)
加入蓝光高清网VIP会员  无限制下载本站所有资源---点这里

资源下载、资源播放、字幕使用、无法下载等常见问题---点这里
回复

使用道具 举报

您需要登录后才可以回帖 登录 | 立即注册

本版积分规则

关注0

粉丝1

帖子83917

发布主题
最新电影 论坛
本期活动
联系我们
点击这里联系客服

服务时间:
周一到周日8:00-23:30

  • 打开微信扫一扫
    关注公众号

  • 手机QQ扫一扫
    添加客服

手机版蓝光高清网 |网站地图

Powered by Discuz! X3.4  © 2001-2013 Comsenz Inc.