[惊悚片] 黑街特警 Brigade.Of.Death.1985.720p.BluRay.x264-CREEPSHOW 7.84GB

[复制链接]
蓝鸟 发表于 2020-5-26 09:00:55 | 显示全部楼层 |阅读模式 打印 上一主题 下一主题

黑街特警 Brigade.Of.Death.1985.720p.BluRay.x264-CREEPSHOW 7.84GB

黑街特警 Brigade.Of.Death.1985.720p.BluRay.x264-CREEPSHOW 7.84GB



译  名 黑街特警
片  名 Brigade des moeurs
年  代 1985
产  地 法国
类  别 惊悚
语  言 法语
上映日期 1985
IMDb评分  5.6/10 from 107 users
IMDb链接  https://www.imdb.com/title/tt0087002
豆瓣评分 0/10 from 0 users
豆瓣链接 https://movie.douban.com/subject/5049446/
片  长 France: 96 分钟
导  演 Max Pécas
编  剧 Roger Le Taillanter

标  签 国外电影 | 惊悚 | 已有待下

简  介  

  当巴黎警察局对一名妓女谋杀案的调查陷入混乱时,一名警察会不惜一切代价进行报复。


该资源信息参数
  1. Video
  2. ID                                       : 1
  3. Format                                   : AVC
  4. Format/Info                              : Advanced Video Codec
  5. Format profile                           : High@L4
  6. Format settings                          : CABAC / 8 Ref Frames
  7. Format settings, CABAC                   : Yes
  8. Format settings, Reference frames        : 8 frames
  9. Codec ID                                 : V_MPEG4/ISO/AVC
  10. Duration                                 : 1 h 37 min
  11. Bit rate                                 : 10.8 Mb/s
  12. Width                                    : 1 280 pixels
  13. Height                                   : 690 pixels
  14. Display aspect ratio                     : 1.85:1
  15. Frame rate mode                          : Constant
  16. Frame rate                               : 23.976 (24000/1001/189150) FPS
  17. Color space                              : YUV
  18. Chroma subsampling                       : 4:2:0
  19. Bit depth                                : 8 bits
  20. Scan type                                : Progressive
  21. Bits/(Pixel*Frame)                       : 0.510
  22. Stream size                              : 7.36 GiB (94%)
  23. Writing library                          : x264 core 160 r3000 33f9e14
  24. Encoding settings                        : cabac=1 / ref=8 / deblock=1:-3:-3 / analyse=0x3:0x133 / me=umh / subme=9 / psy=1 / psy_rd=1.00:0.00 / mixed_ref=1 / me_range=16 / chroma_me=1 / trellis=2 / 8x8dct=1 / cqm=0 / deadzone=21,11 / fast_pskip=0 / chroma_qp_offset=-2 / threads=12 / lookahead_threads=1 / sliced_threads=0 / nr=0 / decimate=0 / interlaced=0 / bluray_compat=0 / constrained_intra=0 / bframes=3 / b_pyramid=2 / b_adapt=2 / b_bias=0 / direct=3 / weightb=1 / open_gop=0 / weightp=2 / keyint=240 / keyint_min=23 / scenecut=40 / intra_refresh=0 / rc_lookahead=60 / rc=crf / mbtree=0 / crf=20.5 / qcomp=0.60 / qpmin=0 / qpmax=69 / qpstep=4 / vbv_maxrate=62500 / vbv_bufsize=78125 / crf_max=0.0 / nal_hrd=none / filler=0 / ip_ratio=1.40 / pb_ratio=1.30 / aq=3:0.70
  25. Default                                  : Yes
  26. Forced                                   : No
  27. Color range                              : Limited
  28. Matrix coefficients                      : BT.709

  29. Audio
  30. ID                                       : 2
  31. Format                                   : FLAC
  32. Format/Info                              : Free Lossless Audio Codec
  33. Codec ID                                 : A_FLAC
  34. Duration                                 : 1 h 37 min
  35. Bit rate mode                            : Variable
  36. Bit rate                                 : 685 kb/s
  37. Channel(s)                               : 1 channel
  38. Channel layout                           : C
  39. Sampling rate                            : 48.0 kHz
  40. Frame rate                               : 11.719 FPS (4096 SPF)
  41. Bit depth                                : 24 bits
  42. Compression mode                         : Lossless
  43. Stream size                              : 478 MiB (6%)
  44. Writing library                          : libFLAC 1.3.2 (UTC 2017-01-01)
  45. Language                                 : French
  46. Default                                  : Yes
  47. Forced                                   : No

  48. Text #1
  49. ID                                       : 3
  50. Format                                   : UTF-8
  51. Codec ID                                 : S_TEXT/UTF8
  52. Codec ID/Info                            : UTF-8 Plain Text
  53. Duration                                 : 1 h 35 min
  54. Bit rate                                 : 43 b/s
  55. Count of elements                        : 1008
  56. Stream size                              : 30.8 KiB (0%)
  57. Language                                 : English
  58. Default                                  : Yes
  59. Forced                                   : No

  60. Text #2
  61. ID                                       : 4
  62. Format                                   : PGS
  63. Muxing mode                              : zlib
  64. Codec ID                                 : S_HDMV/PGS
  65. Codec ID/Info                            : Picture based subtitle format used on BDs/HD-DVDs
  66. Duration                                 : 1 h 35 min
  67. Bit rate                                 : 25.0 kb/s
  68. Count of elements                        : 1489
  69. Stream size                              : 17.1 MiB (0%)
  70. Language                                 : English
  71. Default                                  : No
  72. Forced                                   : No

  73. Menu
  74. 00:00:00.000                             : en:Chapter 01
  75. 00:02:50.212                             : en:Chapter 02
  76. 00:05:18.693                             : en:Chapter 03
  77. 00:11:31.316                             : en:Chapter 04
  78. 00:13:04.701                             : en:Chapter 05
  79. 00:16:33.367                             : en:Chapter 06
  80. 00:18:50.546                             : en:Chapter 07
  81. 00:22:46.740                             : en:Chapter 08
  82. 00:27:31.233                             : en:Chapter 09
  83. 00:30:29.578                             : en:Chapter 10
  84. 00:33:47.317                             : en:Chapter 11
  85. 00:41:49.090                             : en:Chapter 12
  86. 00:52:04.371                             : en:Chapter 13
  87. 00:59:13.884                             : en:Chapter 14
  88. 01:05:43.606                             : en:Chapter 15
  89. 01:13:50.551                             : en:Chapter 16
  90. 01:17:13.838                             : en:Chapter 17
  91. 01:24:02.162                             : en:Chapter 18
  92. 01:29:11.721                             : en:Chapter 19
  93. 01:32:11.401                             : en:Chapter 20
  94. 01:34:05.807                             : en:Chapter 21
  95. 01:36:00.046                             : en:Chapter 22
复制代码








蓝光高清网提示您 点击下方附件名称 马上开始下载

黑街特警 Brigade.Of.Death.1985.720p.BluRay.x264-CREEPSHOW 7.84GB
Brigade.Of.Death.1985.720p.BluRay.x264-CREEPSHOW.torrent 
         (39.79 KB    阅读权限: 0)
加入蓝光高清网VIP会员  无限制下载本站所有资源---点这里

资源下载、资源播放、字幕使用、无法下载等常见问题---点这里
回复

使用道具 举报

您需要登录后才可以回帖 登录 | 立即注册

本版积分规则

关注0

粉丝1

帖子83917

发布主题
最新电影 论坛
本期活动
联系我们
点击这里联系客服

服务时间:
周一到周日8:00-23:30

  • 打开微信扫一扫
    关注公众号

  • 手机QQ扫一扫
    添加客服

手机版蓝光高清网 |网站地图

Powered by Discuz! X3.4  © 2001-2013 Comsenz Inc.