[冒险片] 阿帕奇黄金 Winnetou.1963.DUBBED.720p.BluRay.x264-BiPOLAR 4.25GB

[复制链接]
蓝鸟 发表于 2020-5-26 09:03:11 | 显示全部楼层 |阅读模式 打印 上一主题 下一主题

阿帕奇黄金 Winnetou.1963.DUBBED.720p.BluRay.x264-BiPOLAR 4.25GB

阿帕奇黄金 Winnetou.1963.DUBBED.720p.BluRay.x264-BiPOLAR 4.25GB



译  名 阿帕奇黄金 / Apache Gold / 阿帕切黄金
片  名 Winnetou - 1. Teil
年  代 1963
产  地 西德 / 南斯拉夫 / 意大利
类  别 西部 / 冒险
语  言 德语
上映日期 1963
IMDb评分  6.9/10 from 3489 users
IMDb链接  https://www.imdb.com/title/tt0057687
豆瓣评分 0/10 from 0 users
豆瓣链接 https://movie.douban.com/subject/5058592/
片  长 101 分钟
导  演 赖恩尔·哈拉尔德 Harald Reinl
编  剧 卡尔·梅 Karl May
主  演 莱克斯·巴克 Lex Barker
       皮埃尔·布莱斯 Pierre Brice
       玛丽·沃西尼 Marie Versini
       马里奥·阿多夫 Mario Adorf
       Walter Barnes
       Husein Cokic


标  签 西部片 | 西部 | 德国|德语电影 | 1963 | 远古类型西部片 | 德国电影 | 意大利 | 卡尔梅

简  介  

  The film was one of a series that attempted for the first time to capture the unique and high romantic Western novels of Germany"s greatest adventure writer Karl May. Now, more than 30 years later, and with a video copy of the film in my library to look at when in the mood, I find this version of Karl May"s novel rather quaint and clumsy in terms of script/screenplay and certainly out of step with the more popularised versions of the Wild West.
  However, May"s portrayal of late 19th century America was always a mixture of well researched facts mingled with high romantic fantasy adventure in the "Knights of the Round Table" or "Star Wars" vein. In this regard, the film does capture the spirit of Karl May"s novels pretty well, if rather geared towards an assumed prior knowledge by the audience of the characters and of May"s novels. From today"s sophisticated movie audience"s perspective this film version of "Winnetou I" is still noteworthy for its magnificent soundtrack rivaling any John Williams score, and for the noble portrayal of the hero by French actor Pierre Brice, who made this role his own in numerous sequels and stage shows.


该资源信息参数
  1. Video
  2. ID                                       : 1
  3. Format                                   : AVC
  4. Format/Info                              : Advanced Video Codec
  5. Format profile                           : High@L4
  6. Format settings                          : CABAC / 11 Ref Frames
  7. Format settings, CABAC                   : Yes
  8. Format settings, Reference frames        : 11 frames
  9. Codec ID                                 : V_MPEG4/ISO/AVC
  10. Duration                                 : 1 h 41 min
  11. Bit rate                                 : 5 591 kb/s
  12. Width                                    : 1 280 pixels
  13. Height                                   : 546 pixels
  14. Display aspect ratio                     : 2.35:1
  15. Frame rate mode                          : Constant
  16. Frame rate                               : 24.000 FPS
  17. Color space                              : YUV
  18. Chroma subsampling                       : 4:2:0
  19. Bit depth                                : 8 bits
  20. Scan type                                : Progressive
  21. Bits/(Pixel*Frame)                       : 0.333
  22. Stream size                              : 3.96 GiB (93%)
  23. Writing library                          : x264 core 160 r3000 33f9e14
  24. Encoding settings                        : cabac=1 / ref=11 / deblock=1:-3:-3 / analyse=0x3:0x133 / me=umh / subme=10 / psy=1 / psy_rd=1.00:0.15 / mixed_ref=1 / me_range=24 / chroma_me=1 / trellis=2 / 8x8dct=1 / cqm=0 / deadzone=21,11 / fast_pskip=1 / chroma_qp_offset=-3 / threads=17 / lookahead_threads=2 / sliced_threads=0 / nr=0 / decimate=1 / interlaced=0 / bluray_compat=0 / constrained_intra=0 / bframes=8 / b_pyramid=2 / b_adapt=2 / b_bias=0 / direct=3 / weightb=1 / open_gop=0 / weightp=2 / keyint=250 / keyint_min=24 / scenecut=40 / intra_refresh=0 / rc_lookahead=60 / rc=crf / mbtree=1 / crf=21.5 / qcomp=0.60 / qpmin=0 / qpmax=69 / qpstep=4 / ip_ratio=1.40 / aq=3:0.60
  25. Language                                 : English
  26. Default                                  : Yes
  27. Forced                                   : No
  28. Color range                              : Limited
  29. Matrix coefficients                      : BT.709

  30. Audio
  31. ID                                       : 2
  32. Format                                   : FLAC
  33. Format/Info                              : Free Lossless Audio Codec
  34. Codec ID                                 : A_FLAC
  35. Duration                                 : 1 h 41 min
  36. Bit rate mode                            : Variable
  37. Bit rate                                 : 392 kb/s
  38. Channel(s)                               : 2 channels
  39. Channel layout                           : L R
  40. Sampling rate                            : 48.0 kHz
  41. Frame rate                               : 11.719 FPS (4096 SPF)
  42. Bit depth                                : 16 bits
  43. Compression mode                         : Lossless
  44. Stream size                              : 285 MiB (7%)
  45. Writing library                          : libFLAC 1.2.1 (UTC 2007-09-17)
  46. Language                                 : English
  47. Default                                  : Yes
  48. Forced                                   : No

  49. Text #1
  50. ID                                       : 3
  51. Format                                   : UTF-8
  52. Codec ID                                 : S_TEXT/UTF8
  53. Codec ID/Info                            : UTF-8 Plain Text
  54. Duration                                 : 1 h 20 min
  55. Bit rate                                 : 8 b/s
  56. Count of elements                        : 95
  57. Stream size                              : 4.97 KiB (0%)
  58. Title                                    : English forced
  59. Language                                 : English
  60. Default                                  : Yes
  61. Forced                                   : Yes

  62. Text #2
  63. ID                                       : 4
  64. Format                                   : UTF-8
  65. Codec ID                                 : S_TEXT/UTF8
  66. Codec ID/Info                            : UTF-8 Plain Text
  67. Duration                                 : 1 h 39 min
  68. Bit rate                                 : 36 b/s
  69. Count of elements                        : 590
  70. Stream size                              : 26.8 KiB (0%)
  71. Title                                    : English
  72. Language                                 : English
  73. Default                                  : No
  74. Forced                                   : No

  75. Text #3
  76. ID                                       : 5
  77. Format                                   : PGS
  78. Muxing mode                              : zlib
  79. Codec ID                                 : S_HDMV/PGS
  80. Codec ID/Info                            : Picture based subtitle format used on BDs/HD-DVDs
  81. Duration                                 : 1 h 20 min
  82. Bit rate                                 : 1 452 b/s
  83. Count of elements                        : 190
  84. Stream size                              : 858 KiB (0%)
  85. Title                                    : English forced
  86. Language                                 : English
  87. Default                                  : No
  88. Forced                                   : No

  89. Text #4
  90. ID                                       : 6
  91. Format                                   : PGS
  92. Muxing mode                              : zlib
  93. Codec ID                                 : S_HDMV/PGS
  94. Codec ID/Info                            : Picture based subtitle format used on BDs/HD-DVDs
  95. Duration                                 : 1 h 39 min
  96. Bit rate                                 : 6 454 b/s
  97. Count of elements                        : 1180
  98. Stream size                              : 4.58 MiB (0%)
  99. Title                                    : English
  100. Language                                 : English
  101. Default                                  : No
  102. Forced                                   : No

  103. Menu
  104. 00:00:00.000                             : en:00:00:00.000
  105. 00:03:42.083                             : en:00:03:42.083
  106. 00:07:47.125                             : en:00:07:47.125
  107. 00:17:59.542                             : en:00:17:59.542
  108. 00:26:07.500                             : en:00:26:07.500
  109. 00:39:27.292                             : en:00:39:27.292
  110. 00:45:41.917                             : en:00:45:41.917
  111. 00:54:03.583                             : en:00:54:03.583
  112. 01:01:55.208                             : en:01:01:55.208
  113. 01:15:11.625                             : en:01:15:11.625
  114. 01:21:53.000                             : en:01:21:53.000
  115. 01:27:35.833                             : en:01:27:35.833
复制代码








蓝光高清网提示您 点击下方附件名称 马上开始下载

阿帕奇黄金 Winnetou.1963.DUBBED.720p.BluRay.x264-BiPOLAR 4.25GB
Winnetou.1963.DUBBED.720p.BluRay.x264-BiPOLAR.torrent 
         (43.13 KB    阅读权限: 0)
加入蓝光高清网VIP会员  无限制下载本站所有资源---点这里

资源下载、资源播放、字幕使用、无法下载等常见问题---点这里
回复

使用道具 举报

您需要登录后才可以回帖 登录 | 立即注册

本版积分规则

关注0

粉丝1

帖子83917

发布主题
最新电影 论坛
本期活动
联系我们
点击这里联系客服

服务时间:
周一到周日8:00-23:30

  • 打开微信扫一扫
    关注公众号

  • 手机QQ扫一扫
    添加客服

手机版蓝光高清网 |网站地图

Powered by Discuz! X3.4  © 2001-2013 Comsenz Inc.