[剧情片] 婚之惑/新婚趣史 The.Family.Way.1966.720p.BluRay.x264-SPOOKS 7.22GB

[复制链接]
蓝鸟 发表于 2020-5-26 09:05:24 | 显示全部楼层 |阅读模式 打印 上一主题 下一主题

婚之惑/新婚趣史 The.Family.Way.1966.720p.BluRay.x264-SPOOKS 7.22GB

婚之惑/新婚趣史 The.Family.Way.1966.720p.BluRay.x264-SPOOKS 7.22GB



译  名 婚之惑 / 新婚趣史(港)
片  名 The Family Way
年  代 1966
产  地 英国
类  别 剧情 / 喜剧 / 爱情
语  言 英语
上映日期 1966-12-18
IMDb评分  7.3/10 from 1253 users
IMDb链接  https://www.imdb.com/title/tt0060395
豆瓣评分 0/10 from 0 users
豆瓣链接 https://movie.douban.com/subject/1951030/
片  长 115 分钟
导  演 Roy Boulting
编  剧 比尔·诺顿 Bill Naughton
主  演 Hayley Mills
       Hywel Bennett
       John Mills


标  签 英国 | Roy_Boulting | 英国电影 | 新浪潮 | 婚之惑 | 喜剧 | 包子脸的配乐 | 下不到

简  介  

  When newly-wed Hywel Bennett fails to consummate his marriage, his nervous bride, Hayley Mills, thinks it"s her fault. But the root of the problem lies with his bullying father, John Mills, whose presence in the same Lancashire household has an inhibiting effect on his shy, sensitive son.


该资源信息参数
  1. Video
  2. ID                                       : 1
  3. Format                                   : AVC
  4. Format/Info                              : Advanced Video Codec
  5. Format profile                           : High@L4
  6. Format settings                          : CABAC / 9 Ref Frames
  7. Format settings, CABAC                   : Yes
  8. Format settings, Reference frames        : 9 frames
  9. Codec ID                                 : V_MPEG4/ISO/AVC
  10. Duration                                 : 1 h 55 min
  11. Bit rate                                 : 8 575 kb/s
  12. Width                                    : 1 200 pixels
  13. Height                                   : 720 pixels
  14. Display aspect ratio                     : 5:3
  15. Frame rate mode                          : Constant
  16. Frame rate                               : 24.000 FPS
  17. Color space                              : YUV
  18. Chroma subsampling                       : 4:2:0
  19. Bit depth                                : 8 bits
  20. Scan type                                : Progressive
  21. Bits/(Pixel*Frame)                       : 0.414
  22. Stream size                              : 6.93 GiB (96%)
  23. Writing library                          : x264 core 160 r3000 33f9e14
  24. Encoding settings                        : cabac=1 / ref=9 / deblock=1:-3:-3 / analyse=0x3:0x133 / me=umh / subme=10 / psy=1 / psy_rd=1.50:0.15 / mixed_ref=1 / me_range=24 / chroma_me=1 / trellis=2 / 8x8dct=1 / cqm=0 / deadzone=21,11 / fast_pskip=0 / chroma_qp_offset=-3 / threads=22 / lookahead_threads=3 / sliced_threads=0 / nr=0 / decimate=0 / interlaced=0 / bluray_compat=0 / constrained_intra=0 / bframes=8 / b_pyramid=2 / b_adapt=2 / b_bias=0 / direct=3 / weightb=1 / open_gop=0 / weightp=2 / keyint=250 / keyint_min=24 / scenecut=40 / intra_refresh=0 / rc=crf / mbtree=0 / crf=16.5 / qcomp=0.60 / qpmin=0 / qpmax=69 / qpstep=4 / ip_ratio=1.40 / pb_ratio=1.30 / aq=3:0.50
  25. Default                                  : Yes
  26. Forced                                   : No
  27. Color range                              : Limited
  28. Matrix coefficients                      : BT.709

  29. Audio
  30. ID                                       : 2
  31. Format                                   : FLAC
  32. Format/Info                              : Free Lossless Audio Codec
  33. Codec ID                                 : A_FLAC
  34. Duration                                 : 1 h 55 min
  35. Bit rate mode                            : Variable
  36. Bit rate                                 : 327 kb/s
  37. Channel(s)                               : 2 channels
  38. Channel layout                           : L R
  39. Sampling rate                            : 48.0 kHz
  40. Frame rate                               : 11.719 FPS (4096 SPF)
  41. Bit depth                                : 16 bits
  42. Compression mode                         : Lossless
  43. Stream size                              : 270 MiB (4%)
  44. Writing library                          : libFLAC 1.3.2 (UTC 2017-01-01)
  45. Language                                 : English
  46. Default                                  : Yes
  47. Forced                                   : No

  48. Text
  49. ID                                       : 3
  50. Format                                   : PGS
  51. Muxing mode                              : zlib
  52. Codec ID                                 : S_HDMV/PGS
  53. Codec ID/Info                            : Picture based subtitle format used on BDs/HD-DVDs
  54. Duration                                 : 1 h 53 min
  55. Bit rate                                 : 56.3 kb/s
  56. Count of elements                        : 3554
  57. Stream size                              : 45.7 MiB (1%)
  58. Language                                 : English
  59. Default                                  : No
  60. Forced                                   : No

  61. Menu
  62. 00:00:00.000                             : en:Chapter 01
  63. 00:06:05.167                             : en:Chapter 02
  64. 00:15:27.708                             : en:Chapter 03
  65. 00:25:39.833                             : en:Chapter 04
  66. 00:32:31.333                             : en:Chapter 05
  67. 00:42:28.417                             : en:Chapter 06
  68. 00:50:36.750                             : en:Chapter 07
  69. 00:58:29.333                             : en:Chapter 08
  70. 01:10:53.208                             : en:Chapter 09
  71. 01:23:12.333                             : en:Chapter 10
  72. 01:37:14.000                             : en:Chapter 11
  73. 01:48:17.625                             : en:Chapter 12
复制代码








蓝光高清网提示您 点击下方附件名称 马上开始下载

婚之惑/新婚趣史 The.Family.Way.1966.720p.BluRay.x264-SPOOKS 7.22GB
The.Family.Way.1966.720p.BluRay.x264-SPOOKS.torrent 
         (36.74 KB    阅读权限: 0)
加入蓝光高清网VIP会员  无限制下载本站所有资源---点这里

资源下载、资源播放、字幕使用、无法下载等常见问题---点这里
回复

使用道具 举报

您需要登录后才可以回帖 登录 | 立即注册

本版积分规则

关注0

粉丝1

帖子83917

发布主题
最新电影 论坛
本期活动
联系我们
点击这里联系客服

服务时间:
周一到周日8:00-23:30

  • 打开微信扫一扫
    关注公众号

  • 手机QQ扫一扫
    添加客服

手机版蓝光高清网 |网站地图

Powered by Discuz! X3.4  © 2001-2013 Comsenz Inc.