[剧情片] 柔道龙虎榜 Throw.Down.2004.720p.BluRay.x264-GHOULS 7.05GB

[复制链接]
蓝鸟 发表于 2020-5-26 09:06:31 | 显示全部楼层 |阅读模式 打印 上一主题 下一主题

柔道龙虎榜 Throw.Down.2004.720p.BluRay.x264-GHOULS 7.05GB

柔道龙虎榜 Throw.Down.2004.720p.BluRay.x264-GHOULS 7.05GB



译  名 Throw Down
片  名 柔道龙虎榜
年  代 2004
产  地 中国香港
类  别 剧情 / 动作
语  言 粤语 / 普通话
上映日期 2004-07-08(中国香港)
IMDb评分  6.8/10 from 1363 users
IMDb链接  https://www.imdb.com/title/tt0415380
豆瓣评分 7.5/10 from 24583 users
豆瓣链接 https://movie.douban.com/subject/1308796/
片  长 95 分钟
导  演 杜琪峰 Johnnie To
编  剧 欧健儿 Kin-Yee Au / 游乃海 Nai-Hoi Yau / 叶天成 Tin-Shing Yip
主  演 古天乐 Louis Koo
       郭富城 Aaron Kwok
       应采儿 Cherrie Ying
       梁家辉 Tony Leung Ka Fai
       陈小春 Jordan Chan
       张兆辉 Siu-Fai Cheung
       蔡一智 Calvin Choi
       卢海鹏 Hoi-Pang Lo
       高捷 Jack Kao
       黄华和 Wan Woo Wong
       元彬 Bun Yuen


标  签 杜琪峰 | 香港 | 银河映像 | 古天乐 | 香港电影 | 动作 | 郭富城 | 梁家辉

简  介  

  曾经号称“柔道小金刚”的司徒宝(古天乐饰),曾是一名高手,如今放弃了柔道,已沦落成债务缠身、嗜赌酗酒的堕落混混。
  新一届的柔道冠军Tony(郭富城饰)慕名而来,直指司徒宝挑战,试图一较高下。宿敌辣手李阿刚(梁家辉饰)又因当年一场未完的比赛,也找上门来要和司徒宝决一雌雄。
  结果Tony和司徒宝成为好友,台湾来的靓女小梦(应采儿饰)一心想当歌星,却险遭暗算,为实现理想屡吃尽苦头的也希望司徒宝能重燃斗志,但真正令其发愤的却是年迈师傅(卢海鹏饰)的战死。
  到底是有什么隐痛让司徒宝自甘沉沦?重寻对柔道信心和热爱的他,是否能够打败对手?

获奖情况  

  第41届台北金马影展(2004)
  金马奖 最佳男配角(提名) 张兆辉
  金马奖 最佳原著剧本 欧健儿 / 游乃海 / 叶天成

  第24届香港电影金像奖(2005)
  最佳动作设计(提名) 元彬

  第5届华语电影传媒大奖(2005)
  最佳电影(提名)
  最佳导演(提名) 杜琪峰
  最佳男配角 张兆辉
  最佳男配角(提名) 梁家辉


该资源信息参数
  1. Video
  2. ID                                       : 1
  3. Format                                   : AVC
  4. Format/Info                              : Advanced Video Codec
  5. Format profile                           : High@L4
  6. Format settings                          : CABAC / 12 Ref Frames
  7. Format settings, CABAC                   : Yes
  8. Format settings, Reference frames        : 12 frames
  9. Codec ID                                 : V_MPEG4/ISO/AVC
  10. Duration                                 : 1 h 35 min
  11. Bit rate                                 : 8 448 kb/s
  12. Width                                    : 1 280 pixels
  13. Height                                   : 544 pixels
  14. Display aspect ratio                     : 2.35:1
  15. Frame rate mode                          : Constant
  16. Frame rate                               : 23.976 (24000/1001/189150) FPS
  17. Color space                              : YUV
  18. Chroma subsampling                       : 4:2:0
  19. Bit depth                                : 8 bits
  20. Scan type                                : Progressive
  21. Bits/(Pixel*Frame)                       : 0.506
  22. Stream size                              : 5.65 GiB (80%)
  23. Writing library                          : x264 core 160 r3000 33f9e14
  24. Encoding settings                        : cabac=1 / ref=12 / deblock=1:-3:-3 / analyse=0x3:0x133 / me=umh / subme=10 / psy=1 / psy_rd=1.20:0.00 / mixed_ref=1 / me_range=24 / chroma_me=1 / trellis=2 / 8x8dct=1 / cqm=0 / deadzone=21,11 / fast_pskip=0 / chroma_qp_offset=-2 / threads=17 / lookahead_threads=2 / sliced_threads=0 / nr=0 / decimate=0 / interlaced=0 / bluray_compat=0 / constrained_intra=0 / bframes=8 / b_pyramid=2 / b_adapt=2 / b_bias=0 / direct=3 / weightb=1 / open_gop=0 / weightp=2 / keyint=250 / keyint_min=23 / scenecut=40 / intra_refresh=0 / rc=crf / mbtree=0 / crf=16.0 / qcomp=0.60 / qpmin=0 / qpmax=69 / qpstep=4 / ip_ratio=1.40 / pb_ratio=1.30 / aq=3:0.90
  25. Default                                  : Yes
  26. Forced                                   : No
  27. Color range                              : Limited
  28. Matrix coefficients                      : BT.709

  29. Audio #1
  30. ID                                       : 2
  31. Format                                   : FLAC
  32. Format/Info                              : Free Lossless Audio Codec
  33. Codec ID                                 : A_FLAC
  34. Duration                                 : 1 h 35 min
  35. Bit rate mode                            : Variable
  36. Bit rate                                 : 1 338 kb/s
  37. Channel(s)                               : 2 channels
  38. Channel layout                           : L R
  39. Sampling rate                            : 48.0 kHz
  40. Frame rate                               : 11.719 FPS (4096 SPF)
  41. Bit depth                                : 24 bits
  42. Compression mode                         : Lossless
  43. Stream size                              : 916 MiB (13%)
  44. Writing library                          : libFLAC 1.3.2 (UTC 2017-01-01)
  45. Language                                 : Chinese
  46. Default                                  : Yes
  47. Forced                                   : No

  48. Audio #2
  49. ID                                       : 3
  50. Format                                   : FLAC
  51. Format/Info                              : Free Lossless Audio Codec
  52. Codec ID                                 : A_FLAC
  53. Duration                                 : 1 h 35 min
  54. Bit rate mode                            : Variable
  55. Bit rate                                 : 531 kb/s
  56. Channel(s)                               : 2 channels
  57. Channel layout                           : L R
  58. Sampling rate                            : 48.0 kHz
  59. Frame rate                               : 11.719 FPS (4096 SPF)
  60. Bit depth                                : 16 bits
  61. Compression mode                         : Lossless
  62. Stream size                              : 363 MiB (5%)
  63. Writing library                          : libFLAC 1.3.2 (UTC 2017-01-01)
  64. Language                                 : English
  65. Default                                  : No
  66. Forced                                   : No

  67. Audio #3
  68. ID                                       : 4
  69. Format                                   : AAC LC
  70. Format/Info                              : Advanced Audio Codec Low Complexity
  71. Codec ID                                 : A_AAC-2
  72. Duration                                 : 1 h 35 min
  73. Bit rate                                 : 104 kb/s
  74. Channel(s)                               : 2 channels
  75. Channel layout                           : L R
  76. Sampling rate                            : 48.0 kHz
  77. Frame rate                               : 46.875 FPS (1024 SPF)
  78. Compression mode                         : Lossy
  79. Delay relative to video                  : 20 ms
  80. Stream size                              : 71.1 MiB (1%)
  81. Title                                    : Commentary
  82. Language                                 : English
  83. Default                                  : No
  84. Forced                                   : No

  85. Audio #4
  86. ID                                       : 5
  87. Format                                   : AAC LC
  88. Format/Info                              : Advanced Audio Codec Low Complexity
  89. Codec ID                                 : A_AAC-2
  90. Duration                                 : 1 h 35 min
  91. Bit rate                                 : 114 kb/s
  92. Channel(s)                               : 2 channels
  93. Channel layout                           : L R
  94. Sampling rate                            : 48.0 kHz
  95. Frame rate                               : 46.875 FPS (1024 SPF)
  96. Compression mode                         : Lossy
  97. Delay relative to video                  : 20 ms
  98. Stream size                              : 78.0 MiB (1%)
  99. Title                                    : Commentary
  100. Language                                 : English
  101. Default                                  : No
  102. Forced                                   : No

  103. Text #1
  104. ID                                       : 6
  105. Format                                   : UTF-8
  106. Codec ID                                 : S_TEXT/UTF8
  107. Codec ID/Info                            : UTF-8 Plain Text
  108. Duration                                 : 1 h 30 min
  109. Bit rate                                 : 21 b/s
  110. Count of elements                        : 558
  111. Stream size                              : 14.1 KiB (0%)
  112. Title                                    : English (Forced)
  113. Language                                 : English
  114. Default                                  : Yes
  115. Forced                                   : Yes

  116. Text #2
  117. ID                                       : 7
  118. Format                                   : UTF-8
  119. Codec ID                                 : S_TEXT/UTF8
  120. Codec ID/Info                            : UTF-8 Plain Text
  121. Duration                                 : 1 h 30 min
  122. Bit rate                                 : 1 b/s
  123. Count of elements                        : 36
  124. Stream size                              : 1 013 Bytes (0%)
  125. Title                                    : English (Forced)
  126. Language                                 : English
  127. Default                                  : No
  128. Forced                                   : No

  129. Text #3
  130. ID                                       : 8
  131. Format                                   : PGS
  132. Muxing mode                              : zlib
  133. Codec ID                                 : S_HDMV/PGS
  134. Codec ID/Info                            : Picture based subtitle format used on BDs/HD-DVDs
  135. Duration                                 : 1 h 30 min
  136. Bit rate                                 : 15.8 kb/s
  137. Count of elements                        : 1116
  138. Stream size                              : 10.3 MiB (0%)
  139. Language                                 : English
  140. Default                                  : No
  141. Forced                                   : No

  142. Text #4
  143. ID                                       : 9
  144. Format                                   : PGS
  145. Muxing mode                              : zlib
  146. Codec ID                                 : S_HDMV/PGS
  147. Codec ID/Info                            : Picture based subtitle format used on BDs/HD-DVDs
  148. Duration                                 : 1 h 30 min
  149. Bit rate                                 : 1 154 b/s
  150. Count of elements                        : 72
  151. Stream size                              : 770 KiB (0%)
  152. Language                                 : English
  153. Default                                  : No
  154. Forced                                   : No

  155. Menu
  156. 00:00:00.000                             : en:Chapter 01
  157. 00:11:13.548                             : en:Chapter 02
  158. 00:24:01.023                             : en:Chapter 03
  159. 00:34:09.256                             : en:Chapter 04
  160. 00:43:39.575                             : en:Chapter 05
  161. 00:52:14.381                             : en:Chapter 06
  162. 01:01:49.623                             : en:Chapter 07
  163. 01:13:31.449                             : en:Chapter 08
  164. 01:24:45.247                             : en:Chapter 09
复制代码








蓝光高清网提示您 点击下方附件名称 马上开始下载

柔道龙虎榜 Throw.Down.2004.720p.BluRay.x264-GHOULS 7.05GB
Throw.Down.2004.720p.BluRay.x264-GHOULS.torrent 
         (35.87 KB    阅读权限: 0)
加入蓝光高清网VIP会员  无限制下载本站所有资源---点这里

资源下载、资源播放、字幕使用、无法下载等常见问题---点这里
回复

使用道具 举报

您需要登录后才可以回帖 登录 | 立即注册

本版积分规则

关注0

粉丝1

帖子83917

发布主题
最新电影 论坛
本期活动
联系我们
点击这里联系客服

服务时间:
周一到周日8:00-23:30

  • 打开微信扫一扫
    关注公众号

  • 手机QQ扫一扫
    添加客服

手机版蓝光高清网 |网站地图

Powered by Discuz! X3.4  © 2001-2013 Comsenz Inc.