[喜剧片] 谁与争疯/Ali G在议会 Ali.G.Indahouse.2002.1080p.BluRay.REMUX.AVC.DTS-HD.MA.5.1-FGT 13.44GB

[复制链接]
蓝鸟 发表于 2020-5-26 09:07:57 | 显示全部楼层 |阅读模式 打印 上一主题 下一主题

谁与争疯/Ali G在议会 Ali.G.Indahouse.2002.1080p.BluRay.REMUX.AVC.DTS-HD.MA.5.1-FGT 13.44GB

谁与争疯/Ali G在议会 Ali.G.Indahouse.2002.1080p.BluRay.REMUX.AVC.DTS-HD.MA.5.1-FGT 13.44GB


译  名 谁与争疯 / Ali G在议会 / 印第屋 / 戆G驾到 / 政界小流星
片  名 Ali G Indahouse
年  代 2002
产  地 法国 / 英国 / 德国
类  别 喜剧
语  言 英语
上映日期 2002-03-22
IMDb评分  6.2/10 from 81844 users
IMDb链接  https://www.imdb.com/title/tt0284837
豆瓣评分 7.4/10 from 1236 users
豆瓣链接 https://movie.douban.com/subject/1302947/
片  长 85分钟
导  演 Mark Mylod
编  剧 Sacha Baron Cohen / Dan Mazer
主  演 萨莎·拜伦·科恩 Sacha Baron Cohen
       埃米里奥·瑞弗拉 Emilio Rivera
       吉娜·劳洛勃丽吉达 Gina Lollobrigida
       Dana de Celis
       罗娜·迈特拉 Rhona Mitra
       马丁·弗瑞曼 Martin Freeman
       查尔斯·丹斯 Charles Dance


标  签 喜剧 | 英国 | 荒诞 | 英国电影 | 2002 | Sacha.Baron.Cohen | SachaBaronCohen | 搞笑

简  介  

  英国C4电视喜剧节目改编的电影,Ali G Indahouse: The Movie is a 2002 movie directed by Mark Mylod starring the fictional character Ali G, performed by the British comedian Sacha Baron Cohen.
  The film is the first in a sort of trilogy of films based of Baron Cohen"s characters from Da Ali G Show television show, the second being Borat: Cultural Learnings of America for Make Benefit Glorious Nation of Kazakhstan, and the third being the untitled Bruno film.


该资源信息参数
  1. Video
  2. ID                                       : 1
  3. ID in the original source medium         : 4113 (0x1011)
  4. Format                                   : AVC
  5. Format/Info                              : Advanced Video Codec
  6. Format profile                           : High@L4
  7. Format settings                          : CABAC / 4 Ref Frames
  8. Format settings, CABAC                   : Yes
  9. Format settings, Reference frames        : 4 frames
  10. Codec ID                                 : V_MPEG4/ISO/AVC
  11. Duration                                 : 1 h 27 min
  12. Bit rate mode                            : Variable
  13. Bit rate                                 : 20.0 Mb/s
  14. Maximum bit rate                         : 35.0 Mb/s
  15. Width                                    : 1 920 pixels
  16. Height                                   : 1 080 pixels
  17. Display aspect ratio                     : 16:9
  18. Frame rate mode                          : Constant
  19. Frame rate                               : 23.976 (24000/1001/189150) FPS
  20. Standard                                 : NTSC
  21. Color space                              : YUV
  22. Chroma subsampling                       : 4:2:0
  23. Bit depth                                : 8 bits
  24. Scan type                                : Progressive
  25. Bits/(Pixel*Frame)                       : 0.402
  26. Stream size                              : 12.2 GiB (90%)
  27. Title                                    : Ali.G.Indahouse.2002.1080p.BluRay.REMUX.AVC.DTS-HD.MA.5.1-FGT
  28. Language                                 : English
  29. Default                                  : No
  30. Forced                                   : No
  31. Color range                              : Limited
  32. Color primaries                          : BT.709
  33. Transfer characteristics                 : BT.709
  34. Matrix coefficients                      : BT.709
  35. Original source medium                   : Blu-ray

  36. Audio
  37. ID                                       : 2
  38. ID in the original source medium         : 4353 (0x1101)
  39. Format                                   : DTS XLL
  40. Format/Info                              : Digital Theater Systems
  41. Commercial name                          : DTS-HD Master Audio
  42. Codec ID                                 : A_DTS
  43. Duration                                 : 1 h 27 min
  44. Bit rate mode                            : Variable
  45. Bit rate                                 : 2 102 kb/s
  46. Channel(s)                               : 6 channels
  47. Channel layout                           : C L R Ls Rs LFE
  48. Sampling rate                            : 48.0 kHz
  49. Frame rate                               : 93.750 FPS (512 SPF)
  50. Bit depth                                : 16 bits
  51. Compression mode                         : Lossless
  52. Stream size                              : 1.28 GiB (10%)
  53. Title                                    : Ali.G.Indahouse.2002.1080p.BluRay.REMUX.AVC.DTS-HD.MA.5.1-FGT
  54. Language                                 : English
  55. Default                                  : Yes
  56. Forced                                   : No
  57. Original source medium                   : Blu-ray

  58. Text
  59. ID                                       : 3
  60. Format                                   : UTF-8
  61. Codec ID                                 : S_TEXT/UTF8
  62. Codec ID/Info                            : UTF-8 Plain Text
  63. Duration                                 : 1 h 26 min
  64. Bit rate                                 : 83 b/s
  65. Count of elements                        : 1324
  66. Stream size                              : 52.9 KiB (0%)
  67. Title                                    : English-SRT
  68. Language                                 : English
  69. Default                                  : Yes
  70. Forced                                   : No

  71. Menu
  72. 00:00:00.000                             : en:Chapter 01
  73. 00:09:14.679                             : en:Chapter 02
  74. 00:17:34.511                             : en:Chapter 03
  75. 00:31:53.995                             : en:Chapter 04
  76. 00:43:59.511                             : en:Chapter 05
  77. 00:55:23.028                             : en:Chapter 06
  78. 01:03:33.476                             : en:Chapter 07
  79. 01:16:02.558                             : en:Chapter 08
  80. 01:21:34.681                             : en:Chapter 09
复制代码


精彩剧照

谁与争疯/Ali G在议会 Ali.G.Indahouse.2002.1080p.BluRay.REMUX.AVC.DTS-HD.MA.5.1-FGT 13.44GB

谁与争疯/Ali G在议会 Ali.G.Indahouse.2002.1080p.BluRay.REMUX.AVC.DTS-HD.MA.5.1-FGT 13.44GB

谁与争疯/Ali G在议会 Ali.G.Indahouse.2002.1080p.BluRay.REMUX.AVC.DTS-HD.MA.5.1-FGT 13.44GB

谁与争疯/Ali G在议会 Ali.G.Indahouse.2002.1080p.BluRay.REMUX.AVC.DTS-HD.MA.5.1-FGT 13.44GB

谁与争疯/Ali G在议会 Ali.G.Indahouse.2002.1080p.BluRay.REMUX.AVC.DTS-HD.MA.5.1-FGT 13.44GB

谁与争疯/Ali G在议会 Ali.G.Indahouse.2002.1080p.BluRay.REMUX.AVC.DTS-HD.MA.5.1-FGT 13.44GB




蓝光高清网提示您 点击下方附件名称 马上开始下载

谁与争疯/Ali G在议会 Ali.G.Indahouse.2002.1080p.BluRay.REMUX.AVC.DTS-HD.MA.5.1-FGT 13.44GB
Ali.G.Indahouse.2002.1080p.BluRay.REMUX.AVC.DTS-HD.MA.5.1-FGT.torrent 
         (67.75 KB    阅读权限: 0)
加入蓝光高清网VIP会员  无限制下载本站所有资源---点这里

资源下载、资源播放、字幕使用、无法下载等常见问题---点这里
回复

使用道具 举报

您需要登录后才可以回帖 登录 | 立即注册

本版积分规则

关注0

粉丝1

帖子83917

发布主题
最新电影 论坛
本期活动
联系我们
点击这里联系客服

服务时间:
周一到周日8:00-23:30

  • 打开微信扫一扫
    关注公众号

  • 手机QQ扫一扫
    添加客服

手机版蓝光高清网 |网站地图

Powered by Discuz! X3.4  © 2001-2013 Comsenz Inc.