游客您好
第三方账号登陆
  • 点击联系客服

    在线时间:9:00-18:00

    客服QQ

    1371333023

    电子邮件

    lanniao@1080pro.net
  • 烧友之家APP

    随时掌握烧友资讯

  • 扫描二维码

    关注微信公众号

推荐阅读
4k演示
未知星球 | 未知职业
  • 关注0
  • 粉丝0
  • 帖子745
精选帖子
开启左侧

老爸 4k Dads.2019.HDR.2160p.WEB.h265 电影下载—14.14 GB

[复制链接]
4k演示 发表于 2020-6-26 10:24:38 | 显示全部楼层 |阅读模式 打印 上一主题 下一主题
老爸
上映时间:2019年
类型:喜剧 记录 家庭 
地区:美国 
导演:布莱丝·达拉斯·霍华德
主演:布莱丝·达拉斯·霍华德 / 朗·霍华德 / 威尔·史密斯 / 贾德·阿帕图 / 吉米·法伦
画质标准:4K HDR  封装音轨:Dolby TrueHD 5.1 Dolby Atmos 
豆瓣评分:7.6分

加入蓝光高清网,轻松下载最新4k资源

您需要 登录 才可以下载或查看,没有帐号?立即注册

x
) K& |1 s0 O, |# D
. v4 Z9 g7 x1 w& [
简       介
$ q& Z5 o/ a0 E% u5 V* R, l& E# ~) ?. Z9 v9 w3 x; @) l' v& v
  一部温情而幽默的纪录片,这部电影由来自全球的六位杰出的父亲组成,通过访谈录、家庭影片,短视频纪录等形式展现父亲育儿的考验和磨难。
' ^9 b  o: [5 e% L
7 p, u; D) S8 l. {: |
# P# @; J. F) u. j' J" W( |
影片参数5 v% P5 J4 h% g
身为人父 / 父亲 / Papas/老爸4k Dads.2019.HDR.2160p.WEB.h265电影信息
$ E7 ~! V- S  N% i( @5 [Video- k$ E) }' S# K6 w) P
ID : 1
* Z7 _( X) O0 o% t: m- |3 ?( G/ @Format : HEVC7 B. D$ W- J/ J2 q7 H
Format/Info : High Efficiency Video Coding
! d2 r' ]2 u/ r8 ^) \Format profile : Main 10@L5@High
$ q8 F5 U; H/ {  q4 IHDR format : SMPTE ST 2086, HDR10 compatible: h7 H7 J- O4 c- j2 N  a
Codec ID : V_MPEGH/ISO/HEVC- S/ Q+ G  v' S" h+ ]6 E
Duration : 1 h 20 min
& c1 Q! n9 F. U2 l0 U: t. ^2 DBit rate : 23.9 Mb/s
) X9 S) U0 z1 ~0 [Width : 3 840 pixels
; Y( q/ [1 t: P8 f/ A8 aHeight : 2 160 pixels
7 R/ f% j8 C1 x( WDisplay aspect ratio : 16:9( ?) j/ o( `, F! C$ I: E( v3 C9 O1 x
Frame rate mode : Constant
5 i- J6 G. p& d/ _% Q) I5 QFrame rate : 23.976 (24000/1001) FPS
) R  A5 s  R  Q0 m( x# I# WColor space : YUV$ j$ ~; s' [0 ^! j# Q& d  N- H
Chroma subsampling : 4:2:0 (Type 2)* G; {* d0 j# }  \8 j1 ?) n2 s
Bit depth : 10 bits
7 P: t: Q. N4 b6 \9 gBits/(Pixel*Frame) : 0.120  A  F! {; f# s* g" X( m9 [7 t# h) T3 B
Stream size : 13.5 GiB (97%)
- Q- t$ Q0 Z3 m4 M: U8 G" @' I4 b8 YLanguage : English) r9 Z) e  }$ o+ S" j
Default : Yes
& x' N) I; x* W9 R& NForced : No
( J5 R- N8 h+ T  U, K- yColor range : Limited! c& T- t. Q& i# {9 _7 J( S6 `9 `: K
Color primaries : BT.2020
6 B% ?* f" M, F) l5 M8 LTransfer characteristics : PQ% W/ d3 B2 r" B; ~% L
Matrix coefficients : BT.2020 non-constant
$ B) b" a# `  F8 ^Mastering display color primaries : Display P3
) o6 L6 h4 l' y! r  g. ?Mastering display luminance : min: 0.0050 cd/m2, max: 1000 cd/m2
! O' ~' N, a8 R; eMaximum Content Light Level : 634 cd/m2
- T! x6 l3 K' OMaximum Frame-Average Light Level : 232 cd/m2& Z7 i& _( e# i( v$ @
! p/ `) l' |+ X8 ^
Audio
+ t0 g4 d! l4 t2 X  QID : 2. s9 @9 ?2 e( o  x; H5 H
Format : E-AC-3 JOC6 _2 x# H8 ~3 x- Q2 O' Q
Format/Info : Enhanced AC-3 with Joint Object Coding! t$ m# o4 O* T- W0 q9 e4 S# M
Commercial name : Dolby Digital Plus with Dolby Atmos3 a8 H- e1 u+ Y* e9 o! \
Codec ID : A_EAC3- \+ P1 p( \4 y1 Y- e8 g
Duration : 1 h 20 min
! F9 b% _9 E+ m/ B$ d; ^5 cBit rate mode : Constant- @% S4 f' D2 U) X( y% c
Bit rate : 768 kb/s; k  {9 \+ ~) h1 X9 ~
Channel(s) : 6 channels
9 a% ^; J# o- ^9 j( TChannel layout : L R C LFE Ls Rs7 ~" I3 n4 H4 r7 I
Sampling rate : 48.0 kHz
7 {1 {  c% ]9 W" i9 h( L4 p( CFrame rate : 31.250 FPS (1536 SPF)/ Q$ ?+ v; d. N" n; h
Compression mode : Lossy
4 m" W6 @" b; }1 q8 B$ }2 L7 w# l' SStream size : 445 MiB (3%)
. |/ M: A+ t! @, t$ s' W2 g/ iLanguage : English
# d7 ?1 I0 a- g8 O& {* p6 GService kind : Complete Main
% k4 ]$ r2 J. K; mDefault : Yes
; [& ?) P* m" \9 \* ~! T$ ^' z+ PForced : No
, W* E3 u) @# r8 L; WComplexity index : 16
2 j3 \2 o/ A  N2 h6 qNumber of dynamic objects : 15
  @9 k, f, I3 `% EBed channel count : 1 channel& x2 A  I4 w. C+ @
Bed channel configuration : LFE) \8 r# k  Z; z9 s5 n
( B8 G' ^4 c+ r3 o0 Z/ o% Y) j

3 J: w, Z" P7 `9 x) F% f5 L蓝光高清网提示您  点击下方附件名称  马上开始下载7 ^7 g7 m7 r4 k. y

' ~) F8 A6 c* S/ X6 h

! H" N) R1 L5 H- v身为人父 / 父亲 / Papas/老爸4k Dads.2019.HDR.2160p.WEB.h265电影下载
" o& D  [& E+ Z
0 ^- b: J" l/ x- [6 y老爸4k Dads.2019.HDR.2160p.WEB.h265【4K  2160p 14.14 GB】

* G5 k  Y* d, b2 g 老爸4k Dads.2019.HDR.2160p.WEB.h265-NiXON.torrent (文件大小:71.36 KB)
回复

使用道具 举报

精彩评论11

milex 发表于 2020-6-26 12:32:51 | 显示全部楼层
非常感谢蓝光高清网分享的各种知识和资源,祝蓝光高清网越来越好
回复 支持 反对

使用道具 举报

gdlmxia 发表于 2020-6-26 20:05:07 | 显示全部楼层
太好啦&萬分感謝版主的無私發佈分享%
回复 支持 反对

使用道具 举报

mouseking007 发表于 2020-6-27 11:14:15 | 显示全部楼层

2 J6 O9 K* f6 `( {" @: _感谢蓝光高清网提供的优质资源,希望网站越办越好。
回复 支持 反对

使用道具 举报

wrangler7 发表于 2020-6-29 08:21:18 | 显示全部楼层
; u  t% r- I8 z
非常感谢蓝光高清网给大家的享乐4k,祝蓝光高清网越办越好!
回复 支持 反对

使用道具 举报

程汝轩 发表于 2020-7-3 18:44:37 | 显示全部楼层

+ ?3 \* B" G. |5 ]( l% E祝蓝光高清网越办越红火。
回复 支持 反对

使用道具 举报

wrangler7 发表于 2020-7-4 07:04:20 | 显示全部楼层
& A0 P7 H& F' U% g
非常感谢蓝光高清网给大家的享乐4k,祝蓝光高清网越办越好!
回复 支持 反对

使用道具 举报

yusong 发表于 2020-7-4 22:15:07 | 显示全部楼层

+ j, Q; t3 k) H: \9 \非常感谢蓝光高清网给大家的享乐4k,祝蓝光高清网越办越好!
回复 支持 反对

使用道具 举报

wrangler7 发表于 2020-7-20 08:17:23 | 显示全部楼层
非常感谢蓝光高清网分享的各种知识和资源,祝蓝光高清网越来越好
回复 支持 反对

使用道具 举报

nwg74 发表于 2020-11-6 15:09:37 | 显示全部楼层
非常感谢蓝光高清网分享的各种知识和资源,祝蓝光高清网越来越好
回复 支持 反对

使用道具 举报

您需要登录后才可以回帖 登录 | 立即注册

本版积分规则

烧友之家(蓝光高清网)本站内容部分由用户自主分享和转载自互联网,转载目的在于传递更多信息,并不代表本网赞同其观点和对其真实性负责。 如有侵权、违反国家法律政策行为,请联系我们,我们会第一时间及时清除和处理!
蓝光高清网 综合资讯平台
关注我们
  • 官方微信公众号
  • 扫码下载官方APP

X3.4 Licensed© 2001-2013 蓝光高清网 烧友之家APP |网站地图