开通会员
全站资源畅享下载
4k原盘抢先下载
免高清币下载
会员用户组特权
开通会员
上传
收藏
首页
开启左侧

老爸 4k Dads.2019.HDR.2160p.WEB.h265 电影下载—14.14 GB

[复制链接]
4k演示 发表于 2020-6-26 10:24:38 | 显示全部楼层 |阅读模式 打印 上一主题 下一主题

老爸(2019年上映)

主演布莱丝·达拉斯·霍华德 / 朗·霍华德 / 威尔·史密斯 / 贾德·阿帕图 / 吉米·法伦
导演布莱丝·达拉斯·霍华德
类型喜剧 记录 家庭 
地区美国 
片长87分钟
画质4K HDR 原盘
音轨Dolby TrueHD 5.1 Dolby Atmos 
评分豆瓣7.6分
电影【老爸】原盘信息
 

加入蓝光高清网,轻松下载最新4k资源

您需要 登录 才可以下载或查看,没有帐号?立即注册

x
4 ^% b' o$ U3 u+ S! z0 ^1 ]

5 C% U) R+ v7 `简       介
# A7 L8 z" g6 _  Y& `/ B5 `9 I" p* j. S
  一部温情而幽默的纪录片,这部电影由来自全球的六位杰出的父亲组成,通过访谈录、家庭影片,短视频纪录等形式展现父亲育儿的考验和磨难。
  X2 N+ J7 G/ f! Q( e: x
. j; P$ ?7 i! i4 j8 H4 O5 n  o$ R& ~

# \, }+ Z& S2 U# L4 v影片参数  U- @/ Z- N+ K3 G( L. L
身为人父 / 父亲 / Papas/老爸4k Dads.2019.HDR.2160p.WEB.h265电影信息; v6 s6 h: X0 o% h4 l
Video
1 M/ B5 Y2 {+ q: p( _3 [ID : 1, c6 j8 E0 F5 f/ H% y4 P8 e
Format : HEVC
6 A, B  x1 ^" i$ pFormat/Info : High Efficiency Video Coding
1 m7 {5 Q% ]2 O/ aFormat profile : Main 10@L5@High
/ x6 g. r/ w& _, [4 y: J; xHDR format : SMPTE ST 2086, HDR10 compatible/ t. W! b6 |7 y  P& d( ]+ ~
Codec ID : V_MPEGH/ISO/HEVC
/ ~" w6 U2 ^: M; H0 |9 g( E$ ~; j4 Y% VDuration : 1 h 20 min
; d+ K3 B$ o7 ~& p2 QBit rate : 23.9 Mb/s" M. V  ~& {+ Z
Width : 3 840 pixels
, J$ O$ ^9 F' FHeight : 2 160 pixels
# A7 s6 D# d; ?% |7 QDisplay aspect ratio : 16:92 s( g- z$ [7 [( F! A9 ~+ W1 O& r
Frame rate mode : Constant
+ p- ^: }+ J! @6 cFrame rate : 23.976 (24000/1001) FPS; ~6 ~. [" }: v) d$ L
Color space : YUV
5 _, D& i5 A1 s; W3 ?# e! {& TChroma subsampling : 4:2:0 (Type 2)  r, |7 k2 Q8 U4 Q
Bit depth : 10 bits( [3 B, b1 K$ u  U8 |
Bits/(Pixel*Frame) : 0.1205 k+ }# ^; e, r+ g1 H: J/ Q
Stream size : 13.5 GiB (97%)
$ R2 w% E! r/ G4 {0 qLanguage : English
& p3 J) [" |  U$ F! S% FDefault : Yes
% t4 P$ }1 ~0 e3 @  E1 n0 xForced : No
% q% x9 U/ p9 `( |; I" B- N5 c% s2 kColor range : Limited
: i/ p7 U) p$ \Color primaries : BT.2020
' C. V2 j% n& I4 A3 P+ h3 B$ x% y# w9 aTransfer characteristics : PQ
) `4 v! A2 _% F* g) _6 ^# a7 gMatrix coefficients : BT.2020 non-constant/ q* e6 F; S! l( K4 Z
Mastering display color primaries : Display P3
: Y& [2 z" K8 l9 Z" dMastering display luminance : min: 0.0050 cd/m2, max: 1000 cd/m2
* b" f/ R, `7 h1 G1 BMaximum Content Light Level : 634 cd/m2
  j0 o8 L4 [2 q# k8 p6 f, `Maximum Frame-Average Light Level : 232 cd/m2
& b" w- y& y2 f, Y5 i- @# b
4 G6 b# j2 Z1 [0 m6 dAudio7 B% _9 z8 C- ^2 b; z% v& _4 ~
ID : 2
/ c) ~& J  q0 {. |* o9 HFormat : E-AC-3 JOC
" l! w: t2 ^7 ~7 x0 BFormat/Info : Enhanced AC-3 with Joint Object Coding+ M; P' s& d4 N7 _# v9 C
Commercial name : Dolby Digital Plus with Dolby Atmos
7 H2 l! T* y) n  G1 R1 iCodec ID : A_EAC3: ^1 F$ @7 w5 r, R% W1 _* H! x
Duration : 1 h 20 min  p0 G" p2 ~5 L2 C3 D: I. s6 x% P
Bit rate mode : Constant
# F' N7 p1 X- V; H+ ?Bit rate : 768 kb/s8 j% H8 j; e1 D; P) \
Channel(s) : 6 channels5 d* s$ A; X8 ~4 W
Channel layout : L R C LFE Ls Rs; l: A* a; d1 C$ p9 b
Sampling rate : 48.0 kHz$ @' x8 X$ ]) p; I
Frame rate : 31.250 FPS (1536 SPF)# h  j+ k2 }( F( ]& u; X4 g
Compression mode : Lossy3 A7 A, k2 K! ?5 ~1 v  C
Stream size : 445 MiB (3%)9 q3 w: `7 Z. B6 T1 q! O: |% v8 x
Language : English
1 L3 @; J% K* B' }Service kind : Complete Main
. O( \5 S8 l- ^5 JDefault : Yes
1 R; p$ d. V4 F$ QForced : No
( }; N6 U3 w. }' pComplexity index : 16
1 |) }; E- `: E2 ~9 ~/ ENumber of dynamic objects : 15' _9 y) o8 W: H- n! g& p+ l. [
Bed channel count : 1 channel* x4 X6 v. P/ }6 f/ R
Bed channel configuration : LFE- \* M7 J# h! a2 y0 [) ~. R3 O

; s/ c! V. v0 X- Q( T: p
% R) S3 w: F+ ~. u3 s9 W
蓝光高清网提示您  点击下方附件名称  马上开始下载/ M; x* q6 z8 O
# G9 ~3 U. }% e1 Q

. L$ H( A1 A4 p( Y7 A& T" r身为人父 / 父亲 / Papas/老爸4k Dads.2019.HDR.2160p.WEB.h265电影下载
# R9 t* i1 x! r9 o' A( p% [8 Z; Y# Q2 _
老爸4k Dads.2019.HDR.2160p.WEB.h265【4K  2160p 14.14 GB】
9 ~+ k! z# ?/ ^- O: r+ T  r6 {
老爸4k Dads.2019.HDR.2160p.WEB.h265-NiXON.torrent (文件大小:71.36 KB)
回复

使用道具 举报

 

精彩评论11

正序浏览
milex 发表于 2020-6-26 12:32:51 | 显示全部楼层
 
非常感谢蓝光高清网分享的各种知识和资源,祝蓝光高清网越来越好
回复

使用道具 举报

 
gdlmxia 发表于 2020-6-26 20:05:07 | 显示全部楼层
 
太好啦&萬分感謝版主的無私發佈分享%
回复

使用道具 举报

 
mouseking007 发表于 2020-6-27 11:14:15 | 显示全部楼层
 
; C4 W* ^9 u0 `, ]! Q
感谢蓝光高清网提供的优质资源,希望网站越办越好。
回复

使用道具 举报

 
wrangler7 发表于 2020-6-29 08:21:18 | 显示全部楼层
 
+ R2 l/ Y1 D2 R+ p* X
非常感谢蓝光高清网给大家的享乐4k,祝蓝光高清网越办越好!
回复

使用道具 举报

 
程汝轩 发表于 2020-7-3 18:44:37 | 显示全部楼层
 

8 n3 A2 J% L" ]3 V% b) t祝蓝光高清网越办越红火。
回复

使用道具 举报

 
wrangler7 发表于 2020-7-4 07:04:20 | 显示全部楼层
 
( K% k! b: G" d/ u2 N
非常感谢蓝光高清网给大家的享乐4k,祝蓝光高清网越办越好!
回复

使用道具 举报

 
yusong 发表于 2020-7-4 22:15:07 | 显示全部楼层
 

. q: r" U& V& I; b3 Q非常感谢蓝光高清网给大家的享乐4k,祝蓝光高清网越办越好!
回复

使用道具 举报

 
wrangler7 发表于 2020-7-20 08:17:23 | 显示全部楼层
 
非常感谢蓝光高清网分享的各种知识和资源,祝蓝光高清网越来越好
回复

使用道具 举报

 
nwg74 发表于 2020-11-6 15:09:37 | 显示全部楼层
 
非常感谢蓝光高清网分享的各种知识和资源,祝蓝光高清网越来越好
回复

使用道具 举报

 
您需要登录后才可以回帖 登录 | 立即注册

本版积分规则

0关注

0粉丝

745帖子

  • 版块推荐
  • 百宝箱

电影推荐

更多+

热门电影

更多+

关注我们:微信服务号

官方微信

手机版

蓝光高清网

专注4k电影、4k视频、VR视频、高清电影、蓝光原盘资源

本站内容部分由用户自主分享和转载自互联网,转载目的在于传递更多信息,并不代表本网赞同其观点和对其真实性负责。

如有侵权、违反国家法律政策行为,请联系我们,我们会第一时间及时清除和处理!

举报反馈邮箱:lanniao@1080pro.net

Copyright   ©2019-2020  蓝光高清网    |网站地图