老爸
4K HDR 
7.6
  • 年代: 2019年
  • 国家/地区: 美国
  • 类型: 喜剧 记录 家庭 
  • 导演: 布莱丝·达拉斯·霍华德
  • 音轨: Dolby TrueHD 5.1 Dolby Atmos 
  • 时长: 87分钟
  • 主演:布莱丝·达拉斯·霍华德 / 朗·霍华德 / 威尔·史密斯 / 贾德·阿帕图 / 吉米·法伦
特别声明:本站提供的所有高清电影作品均是在网上搜集,任何涉及商业盈利目的均不得使用,否则产生的一切后果将由您自己承担!本站将不对本站的任何内容负任何法律责任!该下载内容仅做宽带测试使用,请在下载后24小时内删除。请购买正版! 本站所有资源均由网上收集而来,版权归原影音公司所有,如果侵犯了你的权益,请通知我们,我们会及时删除侵权内容.

老爸 4k Dads.2019.HDR.2160p.WEB.h265 电影下载—14.14 GB

[复制链接]
4k演示 发表于 2020-6-26 10:24:38 | 显示全部楼层 |阅读模式 打印 上一主题 下一主题
) |' s5 f9 r8 I

' K' W% y- k6 _4 G' L- q简       介
. [$ H6 M1 u  s
$ i2 h; l) v& g3 ^$ \0 a5 d  一部温情而幽默的纪录片,这部电影由来自全球的六位杰出的父亲组成,通过访谈录、家庭影片,短视频纪录等形式展现父亲育儿的考验和磨难。
7 _' Z4 h& J, v( E; q: q
$ g2 }, ^: [  \1 {. g

, U; `- P7 M$ n2 f0 s2 h* P- n影片参数& `1 B( L( U4 ?: Z: A3 W$ m5 ?# \
身为人父 / 父亲 / Papas/老爸4k Dads.2019.HDR.2160p.WEB.h265电影信息
, |9 e1 M; Z# |3 QVideo) H: o9 w* C' J7 ~
ID : 1
* p+ ]+ |- c( j0 t& ?/ mFormat : HEVC& ~7 M8 b' n$ l* }; e! Y0 \+ ^2 m8 J/ k
Format/Info : High Efficiency Video Coding
! B* A: f; \9 f5 V2 qFormat profile : Main 10@L5@High
6 u( c+ I9 [) q7 F! U% M# ?; pHDR format : SMPTE ST 2086, HDR10 compatible
/ H3 `0 {! k  e6 y5 L" ^Codec ID : V_MPEGH/ISO/HEVC
) x" v5 M0 l- e7 g, x( q  ^/ [Duration : 1 h 20 min* g" A6 E) _3 v% B
Bit rate : 23.9 Mb/s
8 `( q$ L4 Q( _' l- }# O/ m% t( MWidth : 3 840 pixels- K3 d* ~# l" R. J, @4 d
Height : 2 160 pixels
3 o2 A# \+ e2 W; K+ K  {+ e$ ?$ eDisplay aspect ratio : 16:9( C: ^5 g9 t2 x1 v
Frame rate mode : Constant, o3 u' n! ^+ _. u4 ^
Frame rate : 23.976 (24000/1001) FPS- i" ]: j9 y( ?1 u
Color space : YUV
! D& r6 d* ]/ ]/ IChroma subsampling : 4:2:0 (Type 2)
, I- C+ d5 D) A2 v& {& a+ pBit depth : 10 bits
2 [# r! C9 j! m7 _) _) c" ]% ^9 TBits/(Pixel*Frame) : 0.120* o  I* n, T- S) w  Z
Stream size : 13.5 GiB (97%)1 P+ O' ]3 ]1 k% ]8 \+ h# P
Language : English
3 T) o3 J- |6 S$ ?Default : Yes- M9 c' @4 {+ |: u4 b
Forced : No" V8 I* z) B5 C  O0 z2 @! N
Color range : Limited: y% c+ E' T1 |1 P+ d
Color primaries : BT.2020/ c% y4 B) _& r2 q1 s+ K# x- b$ r
Transfer characteristics : PQ3 {1 W  S9 x  I6 `! |5 y
Matrix coefficients : BT.2020 non-constant
! M! H  k/ L6 I! ?  tMastering display color primaries : Display P3
/ E0 C' K% J  f5 {  j/ cMastering display luminance : min: 0.0050 cd/m2, max: 1000 cd/m2
! \6 C- Z8 [7 m" P) R& bMaximum Content Light Level : 634 cd/m2: F! _) a' T1 k& t
Maximum Frame-Average Light Level : 232 cd/m2
+ s6 H2 W# v; i3 C' r; f/ ~" ~( x
0 d& ^* W) `8 J% vAudio+ S5 @" @% u0 K5 d1 \! F6 l6 X! j7 w7 m
ID : 26 y( m4 a+ _- ?& D
Format : E-AC-3 JOC9 s& p$ [0 b& Y! W- j# C3 p6 u
Format/Info : Enhanced AC-3 with Joint Object Coding
5 _* g; T5 d3 z" G8 |Commercial name : Dolby Digital Plus with Dolby Atmos
  l- ~3 ^7 S; H& [/ Z  ]0 U, wCodec ID : A_EAC3- G; x" G: }# _2 F# R! R! }- C
Duration : 1 h 20 min
4 c5 O3 E5 k: nBit rate mode : Constant. g4 S* ~1 p. b8 H8 u3 p7 g
Bit rate : 768 kb/s  ?* n+ p) w+ Z. R6 G  v" T3 w  e
Channel(s) : 6 channels
  ^% q) A, D% KChannel layout : L R C LFE Ls Rs
6 X; v9 z8 l. E% y& B7 VSampling rate : 48.0 kHz( k4 u! I* N- S( a  X$ P9 Q
Frame rate : 31.250 FPS (1536 SPF)
$ X" j- \" h+ b. ^. K. lCompression mode : Lossy  v: U" r; S, N; x8 M
Stream size : 445 MiB (3%). _" k; U8 a* b* }& z3 B5 G
Language : English# b/ t& F' ^; U
Service kind : Complete Main
& _  s. M5 i9 O6 m& \Default : Yes
3 ^  a$ I; F. ?! A- n$ m! n- m% {Forced : No3 ~, p4 F- z" w( A0 p$ U
Complexity index : 163 R3 d) o* v# E1 p
Number of dynamic objects : 15$ f/ ]7 w* j4 y$ K" _" s4 Q
Bed channel count : 1 channel9 o* P5 k3 L+ l& C# _
Bed channel configuration : LFE% e  @0 a; q% y7 C

* a+ Y* _3 B/ g( [8 k. T+ ^( @, G
$ p! q1 B/ x2 F7 H
蓝光高清网提示您  点击下方附件名称  马上开始下载
; ]1 f& V3 {, C  E+ Q* E1 p+ H' z+ N  H  h

' ~2 {" E) t) D/ a% o1 F身为人父 / 父亲 / Papas/老爸4k Dads.2019.HDR.2160p.WEB.h265电影下载+ z9 t: @' z6 v) x  c
8 O" k' r3 ^- i8 _* O
老爸4k Dads.2019.HDR.2160p.WEB.h265【4K  2160p 14.14 GB】
/ t8 i- |2 q9 j4 {! U
老爸4k Dads.2019.HDR.2160p.WEB.h265-NiXON.torrent 
         (71.36 KB    阅读权限: 20)
回复

使用道具 举报

精彩评论7

milex 发表于 2020-6-26 12:32:51 | 显示全部楼层
非常感谢蓝光高清网分享的各种知识和资源,祝蓝光高清网越来越好
回复

使用道具 举报

gdlmxia 发表于 2020-6-26 20:05:07 | 显示全部楼层
太好啦&萬分感謝版主的無私發佈分享%
回复

使用道具 举报

mouseking007 发表于 2020-6-27 11:14:15 | 显示全部楼层
/ i$ }0 A5 S6 K" a
感谢蓝光高清网提供的优质资源,希望网站越办越好。
回复

使用道具 举报

wrangler7 发表于 7 天前 | 显示全部楼层

3 P% G' k, @; P- z  H. }非常感谢蓝光高清网给大家的享乐4k,祝蓝光高清网越办越好!
回复

使用道具 举报

程汝轩 发表于 3 天前 | 显示全部楼层
: ?6 ]( @' p; u5 D4 N8 R: C
祝蓝光高清网越办越红火。
回复

使用道具 举报

wrangler7 发表于 前天 07:04 | 显示全部楼层
9 b6 E0 T$ K; _" T8 G
非常感谢蓝光高清网给大家的享乐4k,祝蓝光高清网越办越好!
回复

使用道具 举报

yusong 发表于 前天 22:15 | 显示全部楼层

: ?" V2 u2 M4 H+ _0 c4 N8 r非常感谢蓝光高清网给大家的享乐4k,祝蓝光高清网越办越好!
回复

使用道具 举报

您需要登录后才可以回帖 登录 | 立即注册

本版积分规则

关注0

粉丝0

帖子697

发布主题
最新电影 论坛
本期活动
联系我们
点击这里联系客服

服务时间:
周一到周日8:00-23:30

  • 打开微信扫一扫
    关注公众号

  • 手机QQ扫一扫
    添加客服

手机版蓝光高清网 |网站地图

Powered by Discuz! X3.4  © 2001-2013 Comsenz Inc.