2分钟的成名
4K HDR 
6.2
  • 年代: 2020年
  • 国家/地区: 美国
  • 类型: 喜剧 
  • 导演: 莱斯利·斯莫尔
  • 音轨: Dolby TrueHD 5.1 Dolby Atmos 
  • 时长: 97分钟
  • 主演:安迪·阿洛 / 柯柯·帕尔莫 / 金莉·刘易斯 / RonReaco Lee / 卡特·威廉姆斯
特别声明:本站提供的所有高清电影作品均是在网上搜集,任何涉及商业盈利目的均不得使用,否则产生的一切后果将由您自己承担!本站将不对本站的任何内容负任何法律责任!该下载内容仅做宽带测试使用,请在下载后24小时内删除。请购买正版! 本站所有资源均由网上收集而来,版权归原影音公司所有,如果侵犯了你的权益,请通知我们,我们会及时删除侵权内容.

2分钟的成名 4k 2.Minutes.of.Fame.2020.HDR.2160p.WEB.H265电影下载—10.32 GB

[复制链接]
4k演示 发表于 2020-6-26 10:30:01 | 显示全部楼层 |阅读模式 打印 上一主题 下一主题

- r6 i! L2 h6 N# c) a2 ^" y
7 u0 t! Q" H$ E: S简       介7 S  y% ^7 h4 O- l5 c

' ]& j8 a0 l2 p8 t/ O( ]3 m  一位崭露头角的喜剧漫画人,因他的表演的视频片段使在网上造成轰动而搬到洛杉矶开始电影事业。8 Y( D. [7 n- \3 B
6 ?8 ~! f+ j# W! P$ L) l+ m& G

3 p, ?3 V: A3 B( H( g  |影片参数: @0 F) B& S! d" v3 W. b
Two Minutes Of Fame/2分钟的成名4k 2.Minutes.of.Fame.2020.HDR.2160p.WEB.H265电影信息! k* @( H  t1 s6 b- D
Video  w8 g3 u4 s0 R. P' ]! G% W
ID : 1$ k2 q: E5 C3 D
Format : HEVC
4 U$ W$ L* J# Y9 g& A- u: M$ W  tFormat/Info : High Efficiency Video Coding
4 h# k% w" z5 |) y/ w" dFormat profile : Main 10@L5@Main8 W) d( o& \3 S
HDR format : SMPTE ST 2086, HDR10 compatible
3 k  W, @: A2 w6 JCodec ID : V_MPEGH/ISO/HEVC
  W5 w2 L- H4 mDuration : 1 h 37 min& _( l* Z9 X7 b, C, S) L
Bit rate : 15.0 Mb/s
  s4 v+ O2 z# L' FWidth : 3 840 pixels9 b! ^4 G$ |4 c% E/ p
Height : 2 160 pixels9 F- o0 T+ K/ V& a2 V2 U0 g7 r
Display aspect ratio : 16:9* R- p- h7 b  q6 e
Frame rate mode : Constant
/ e) R# [& l/ ]. G- r2 _  eFrame rate : 23.976 (24000/1001) FPS
5 g; J$ R5 v7 d+ p. OOriginal frame rate : 23.976 (23976/1000) FPS
4 B# v" s( O, L) CColor space : YUV% E5 v, E- Y! j! l/ p% F- J- Q
Chroma subsampling : 4:2:0 (Type 2)
  V2 B) \* z3 c. R  o) R% h& w2 OBit depth : 10 bits
2 J7 B: O5 F9 M5 ABits/(Pixel*Frame) : 0.075
/ m  U( {3 S4 K, i2 q$ z% DStream size : 10.1 GiB (98%)2 `8 X! B9 ~. a+ c  E' B% o6 l. e$ u
Writing library : x265 3.0:[Linux][GCC 4.8.5][64 bit] 10bit' a: T9 i) X: b- X& W, o
Encoding settings : cpuid=1111039 / frame-threads=6 / wpp / no-pmode / no-pme / no-psnr / no-ssim / log-level=2 / input-csp=1 / input-res=3840x2160 / interlace=0 / total-frames=0 / level-idc=50 / high-tier=1 / uhd-bd=0 / ref=3 / no-allow-non-conformance / repeat-headers / annexb / no-aud / no-hrd / info / hash=0 / no-temporal-layers / no-open-gop / min-keyint=48 / keyint=48 / gop-lookahead=0 / bframes=4 / b-adapt=2 / b-pyramid / bframe-bias=0 / rc-lookahead=48 / lookahead-slices=4 / scenecut=40 / radl=0 / no-splice / no-intra-refresh / ctu=64 / min-cu-size=8 / rect / no-amp / max-tu-size=32 / tu-inter-depth=1 / tu-intra-depth=1 / limit-tu=0 / rdoq-level=2 / dynamic-rd=0.00 / no-ssim-rd / signhide / no-tskip / nr-intra=0 / nr-inter=0 / no-constrained-intra / strong-intra-smoothing / max-merge=3 / limit-refs=3 / limit-modes / me=2 / subme=3 / merange=57 / temporal-mvp / weightp / no-weightb / no-analyze-src-pics / deblock=0:0 / no-sao / no-sao-non-deblock / rd=4 / no-early-skip / no-rskip / no-fast-intra / no-tskip-fast / no-cu-lossless / no-b-intra / no-splitrd-skip / rdpenalty=0 / psy-rd=4.00 / psy-rdoq=10.00 / no-rd-refine / no-lossless / cbqpoffs=0 / crqpoffs=0 / rc=abr / bitrate=15000 / qcomp=0.60 / qpstep=1 / stats-write=0 / stats-read=0 / vbv-maxrate=22500 / vbv-bufsize=22500 / vbv-init=0.9 / ipratio=1.10 / pbratio=1.00 / aq-mode=0 / aq-strength=0.00 / no-cutree / zone-count=0 / no-strict-cbr / qg-size=32 / rc-grain / qpmax=69 / qpmin=0 / const-vbv / sar=1 / overscan=0 / videoformat=5 / range=0 / colorprim=9 / transfer=16 / colormatrix=9 / chromaloc=1 / chromaloc-top=2 / chromaloc-bottom=2 / display-window=0 / master-display=G(13250,34500)B(7500,3000)R(34000,16000)WP(15635,16450)L(10000000,50) / max-cll=1000,161 / min-luma=0 / max-luma=1023 / log2-max-poc-lsb=8 / vui-timing-info / vui-hrd-info / slices=1 / no-opt-qp-pps / no-opt-ref-list-length-pps / no-multi-pass-opt-rps / scenecut-bias=0.05 / no-opt-cu-delta-qp / no-aq-motion / hdr / no-hdr-opt / no-dhdr10-opt / no-idr-recovery-sei / analysis-reuse-level=5 / scale-factor=0 / refine-intra=0 / refine-inter=0 / refine-mv=0 / refine-ctu-distortion=0 / no-limit-sao / ctu-info=0 / no-lowpass-dct / refine-analysis-type=0 / copy-pic=1 / max-ausize-factor=1.0 / no-dynamic-refine / no-single-sei / no-hevc-aq / qp-adaptation-range=1.00
0 B. g+ c) Z$ G) L4 H' ^Default : Yes8 l# U& q% a. i) ]
Forced : No+ o/ F- {3 Q) K% O# @: _
Color range : Limited% l( M+ v, w$ t5 m+ c- @$ @$ j) z
Color primaries : BT.20204 F3 y+ |9 e7 ^& l- o, u) W
Transfer characteristics : PQ7 f' @$ b' K# F* Q" l- _
Matrix coefficients : BT.2020 non-constant) R' [  X8 n7 N) h9 ]
Mastering display color primaries : Display P33 b- D( W9 C$ c% i3 t2 q
Mastering display luminance : min: 0.0050 cd/m2, max: 1000 cd/m23 h( s; m' k, e& c5 i- x& c
Maximum Content Light Level : 1000 cd/m2- Y1 i1 T  K; {" j4 ]
Maximum Frame-Average Light Level : 161 cd/m2
( e& v7 }. `; _. N& m: e  D
* }0 [* n3 F" c. K- f

0 t& L. d9 H/ R2 Z, ]8 V3 UAudio
  x3 q! J/ V& ^# [. mID : 2
6 a4 ]$ x: ^) a$ c- y( ~$ t, _Format : E-AC-3
& P2 r; e+ U  B8 p. W3 _Format/Info : Enhanced AC-3  e( y9 f) z- s$ [! r# p; }6 G
Commercial name : Dolby Digital Plus
& i/ C3 [, I9 e& bCodec ID : A_EAC3
  b& N# |2 t7 |3 q" r6 C+ ?Duration : 1 h 37 min
! r) h1 V" R3 ]% s' r$ ^Bit rate mode : Constant
+ T# x: u( A' f& o2 M, DBit rate : 256 kb/s9 Y, @7 o! H/ \
Channel(s) : 6 channels# U; c, P* G! X+ `2 q( |; K# \% K
Channel layout : L R C LFE Ls Rs
; u- M$ z. K% U; \Sampling rate : 48.0 kHz
8 P# |4 n) s: B1 k8 jFrame rate : 31.250 FPS (1536 SPF)& V( i# ^8 I% c$ H! d; g
Compression mode : Lossy6 q0 x! Y% x0 v
Stream size : 178 MiB (2%): ?* R/ y# }. e+ i; Z: |. r$ W$ r* k
Language : English
1 b' k% n% N  L3 FService kind : Complete Main7 o4 K6 L$ u8 f' z: j% o
Default : Yes- H* ^* O2 a) d
Forced : No- l+ t1 U/ d  u/ t* [0 H4 G
# i3 w! e& a: p4 ]: S

& b7 [. q) G( uText
5 [! ]7 N5 [, f! ]ID : 35 m) q/ Z- h( ^8 z8 t0 w2 S
Format : UTF-8  j5 U& G6 Z! ]8 J8 G: r3 T
Codec ID : S_TEXT/UTF8* V. ]* B! [3 \
Codec ID/Info : UTF-8 Plain Text* N( F" M, _9 b/ s" A: A
Duration : 1 h 31 min
2 B7 [7 y5 k8 u/ \  wBit rate : 113 b/s
) J2 ]$ m9 J, Q% \1 UCount of elements : 2460
8 H/ {- K4 p; l; q) S* KStream size : 76.2 KiB (0%): c$ Q% a6 F) h2 t. i: n: `) h5 I
Language : English
6 c6 G+ e% u: O1 _3 WDefault : No
% q5 ~/ S7 m5 ~+ Q3 v* PForced : No- ?, Q, v- @+ L* D
0 M4 _" |/ N$ a( v6 w
; y( h  b8 ?  b+ x, V4 G. M! P+ H
蓝光高清网提示您  点击下方附件名称  马上开始下载
& U  S. W1 b2 l( s, _
8 P6 [( r& D% R+ q! V

2 d0 X9 M- \! M& W- L多版本下载时请注意区分' x2 c6 }+ a) `+ F

7 j( r3 E" W% A$ |1 s8 W  Y( x
3 [+ s. |- `' }# E' |0 b
Two Minutes Of Fame/2分钟的成名4k 2.Minutes.of.Fame.2020.HDR.2160p.WEB.H265电影下载; ]% l% `% H" ^& G% X0 X+ P( _' V5 V

/ k* c! ^/ E- F* K1 p; q& q
; Z; O2 e# _+ S  V
2分钟的成名4k 2.Minutes.of.Fame.2020.HDR.2160p.WEB.H265【4K  2160p 10.32 GB】
' X3 d, U3 t7 M: @ 2分钟的成名4k 2.Minutes.of.Fame.2020.HDR.2160p.WEB.H265-HUZZAH.torrent 
         (52.2 KB    阅读权限: 20)
回复

使用道具 举报

精彩评论5

gdlmxia 发表于 2020-6-26 17:21:43 | 显示全部楼层
太好啦&萬分感謝版主的無私發佈分享%
回复

使用道具 举报

yusong 发表于 2020-6-26 22:18:55 | 显示全部楼层

1 C1 N" H0 h1 G4 M% \; D身体健康,天天开心,祝蓝光高清网越办越红火
回复

使用道具 举报

mt2356168 发表于 2020-6-27 15:46:48 | 显示全部楼层

1 Z0 `9 G$ b3 Q3 d, u支持蓝光高清网!
回复

使用道具 举报

wrangler7 发表于 7 天前 | 显示全部楼层
非常感谢蓝光高清网分享的各种知识和资源,祝蓝光高清网越来越好
回复

使用道具 举报

渝A@Happy666 发表于 前天 08:31 | 显示全部楼层
! J, A$ O8 a. m9 ^; \( ~
支持蓝光高清网!
回复

使用道具 举报

您需要登录后才可以回帖 登录 | 立即注册

本版积分规则

关注0

粉丝0

帖子697

发布主题
最新电影 论坛
本期活动
联系我们
点击这里联系客服

服务时间:
周一到周日8:00-23:30

  • 打开微信扫一扫
    关注公众号

  • 手机QQ扫一扫
    添加客服

手机版蓝光高清网 |网站地图

Powered by Discuz! X3.4  © 2001-2013 Comsenz Inc.