开通会员
全站资源畅享下载
4k原盘抢先下载
免高清币下载
会员用户组特权
开通会员
上传
收藏
首页
开启左侧

2分钟的成名 4k 2.Minutes.of.Fame.2020.HDR.2160p.WEB.H265电影下载—10.32 GB

[复制链接]
4k演示 发表于 2020-6-26 10:30:01 | 显示全部楼层 |阅读模式 打印 上一主题 下一主题

2分钟的成名(2020年上映)

主演安迪·阿洛 / 柯柯·帕尔莫 / 金莉·刘易斯 / RonReaco Lee / 卡特·威廉姆斯
导演莱斯利·斯莫尔
类型喜剧 
地区美国 
片长97分钟
画质4K HDR 原盘
音轨Dolby TrueHD 5.1 Dolby Atmos 
评分豆瓣6.2分
电影【2分钟的成名】原盘信息
 

加入蓝光高清网,轻松下载最新4k资源

您需要 登录 才可以下载或查看,没有帐号?立即注册

x

+ d( e9 D/ Q# S& y8 w1 f% w+ Q5 z, W/ y
简       介( T; \9 Y2 h% B  Y, M" c6 [* D! \

4 ]# T- z2 p/ N9 b$ ?  一位崭露头角的喜剧漫画人,因他的表演的视频片段使在网上造成轰动而搬到洛杉矶开始电影事业。/ Z6 y2 u- y* ]" Z2 @

/ \/ z) v3 c9 I/ L

# e$ X9 I  T5 U3 E" }& {影片参数
, D( Z  ~  A7 f4 \+ ITwo Minutes Of Fame/2分钟的成名4k 2.Minutes.of.Fame.2020.HDR.2160p.WEB.H265电影信息- I6 F) ^) R) f+ I+ K2 d
Video( {* \" a6 Q1 a' U
ID : 1/ s8 T  P+ u& d
Format : HEVC
' }* v! {2 Z+ w+ d6 @; c1 c0 W/ D; bFormat/Info : High Efficiency Video Coding* i; V0 j6 M/ G, O; j
Format profile : Main 10@L5@Main
2 s( z6 j/ l' v( FHDR format : SMPTE ST 2086, HDR10 compatible. |4 @& E, w& o0 b
Codec ID : V_MPEGH/ISO/HEVC
/ L4 ^; _  F! m) `* R% XDuration : 1 h 37 min
- w) {0 `  h& d  }4 s) N! k3 aBit rate : 15.0 Mb/s9 i- \8 J0 _+ O  N: h1 [
Width : 3 840 pixels
7 O9 ?# ~) W( Z9 `$ p8 {/ [4 UHeight : 2 160 pixels
+ D2 k2 O( f+ f1 U% |8 Z7 `Display aspect ratio : 16:9, m5 b4 O" B2 M* R
Frame rate mode : Constant
  G! D0 o6 R5 I( K) f) J  s/ B0 CFrame rate : 23.976 (24000/1001) FPS; C7 n# r1 M5 ?! Q1 h
Original frame rate : 23.976 (23976/1000) FPS
) G/ v. ^  ^1 L8 }Color space : YUV/ T4 P: h# L0 h9 f4 B0 j! i( s" p  D
Chroma subsampling : 4:2:0 (Type 2)
9 ~0 T# z+ s  O; v$ Y# x3 L  C' HBit depth : 10 bits0 j' [, u- q. g  @1 i' G
Bits/(Pixel*Frame) : 0.075
% b! c# A+ m- D4 X/ A6 F3 wStream size : 10.1 GiB (98%)
! F+ [; O) x/ H6 ~/ z9 dWriting library : x265 3.0:[Linux][GCC 4.8.5][64 bit] 10bit
1 F9 ~/ e* j# S) D6 j% A3 {: VEncoding settings : cpuid=1111039 / frame-threads=6 / wpp / no-pmode / no-pme / no-psnr / no-ssim / log-level=2 / input-csp=1 / input-res=3840x2160 / interlace=0 / total-frames=0 / level-idc=50 / high-tier=1 / uhd-bd=0 / ref=3 / no-allow-non-conformance / repeat-headers / annexb / no-aud / no-hrd / info / hash=0 / no-temporal-layers / no-open-gop / min-keyint=48 / keyint=48 / gop-lookahead=0 / bframes=4 / b-adapt=2 / b-pyramid / bframe-bias=0 / rc-lookahead=48 / lookahead-slices=4 / scenecut=40 / radl=0 / no-splice / no-intra-refresh / ctu=64 / min-cu-size=8 / rect / no-amp / max-tu-size=32 / tu-inter-depth=1 / tu-intra-depth=1 / limit-tu=0 / rdoq-level=2 / dynamic-rd=0.00 / no-ssim-rd / signhide / no-tskip / nr-intra=0 / nr-inter=0 / no-constrained-intra / strong-intra-smoothing / max-merge=3 / limit-refs=3 / limit-modes / me=2 / subme=3 / merange=57 / temporal-mvp / weightp / no-weightb / no-analyze-src-pics / deblock=0:0 / no-sao / no-sao-non-deblock / rd=4 / no-early-skip / no-rskip / no-fast-intra / no-tskip-fast / no-cu-lossless / no-b-intra / no-splitrd-skip / rdpenalty=0 / psy-rd=4.00 / psy-rdoq=10.00 / no-rd-refine / no-lossless / cbqpoffs=0 / crqpoffs=0 / rc=abr / bitrate=15000 / qcomp=0.60 / qpstep=1 / stats-write=0 / stats-read=0 / vbv-maxrate=22500 / vbv-bufsize=22500 / vbv-init=0.9 / ipratio=1.10 / pbratio=1.00 / aq-mode=0 / aq-strength=0.00 / no-cutree / zone-count=0 / no-strict-cbr / qg-size=32 / rc-grain / qpmax=69 / qpmin=0 / const-vbv / sar=1 / overscan=0 / videoformat=5 / range=0 / colorprim=9 / transfer=16 / colormatrix=9 / chromaloc=1 / chromaloc-top=2 / chromaloc-bottom=2 / display-window=0 / master-display=G(13250,34500)B(7500,3000)R(34000,16000)WP(15635,16450)L(10000000,50) / max-cll=1000,161 / min-luma=0 / max-luma=1023 / log2-max-poc-lsb=8 / vui-timing-info / vui-hrd-info / slices=1 / no-opt-qp-pps / no-opt-ref-list-length-pps / no-multi-pass-opt-rps / scenecut-bias=0.05 / no-opt-cu-delta-qp / no-aq-motion / hdr / no-hdr-opt / no-dhdr10-opt / no-idr-recovery-sei / analysis-reuse-level=5 / scale-factor=0 / refine-intra=0 / refine-inter=0 / refine-mv=0 / refine-ctu-distortion=0 / no-limit-sao / ctu-info=0 / no-lowpass-dct / refine-analysis-type=0 / copy-pic=1 / max-ausize-factor=1.0 / no-dynamic-refine / no-single-sei / no-hevc-aq / qp-adaptation-range=1.00. @1 w: H2 l: ^( p( e
Default : Yes$ v' @$ r7 s' G7 U
Forced : No
) `5 {: M* `( }) `7 ^3 BColor range : Limited6 }  K$ y" Z5 K  A) B
Color primaries : BT.2020
: H, R: A% _( z" ]" {4 B8 K' O/ hTransfer characteristics : PQ
: s& j+ G+ i$ c) z) k# [Matrix coefficients : BT.2020 non-constant
5 u4 [' k/ z1 d/ d; d8 M. i5 d' \Mastering display color primaries : Display P3. p( {2 }; K* @9 F3 t
Mastering display luminance : min: 0.0050 cd/m2, max: 1000 cd/m2$ N  R9 F) M5 K0 C& B7 M5 f' Z4 I
Maximum Content Light Level : 1000 cd/m2( Q6 @* a! P5 U% ]
Maximum Frame-Average Light Level : 161 cd/m2
5 D" U% X4 y& R$ w- t
6 p  |* r" Y" {* `) n$ Z) V! D% q+ G
$ ~7 B3 s/ [, q: z
Audio. ?) g1 E( t: T% d  e! n" A
ID : 2
0 _7 d' |, O5 ~" y2 [8 z2 \Format : E-AC-3
7 B1 u7 P$ c% N: X5 g1 `Format/Info : Enhanced AC-3) o+ U4 H2 D: T8 z; ]8 E# a* Z
Commercial name : Dolby Digital Plus- r1 j3 `: x, t# p8 d) J; e
Codec ID : A_EAC3
7 i, R9 n; R# m7 Z/ j& G% MDuration : 1 h 37 min
: w4 k( d1 A/ w5 n! l4 u0 R( g1 u* e+ cBit rate mode : Constant
6 x9 j. D* s2 |; C! |/ C0 A4 aBit rate : 256 kb/s
! k. [! j6 P6 MChannel(s) : 6 channels3 l. E' n" l& D
Channel layout : L R C LFE Ls Rs4 F6 }9 E  D; L' Y3 @! C! K' A
Sampling rate : 48.0 kHz4 s  ]; {" H) Q4 V8 B+ ^3 w7 D, r
Frame rate : 31.250 FPS (1536 SPF)* H& f$ G, l2 V- q6 ?
Compression mode : Lossy( A% ]" p2 t$ X7 C. D
Stream size : 178 MiB (2%)  W' }. x9 z/ j7 N1 p
Language : English
( h4 i- T& j3 o  I: U6 SService kind : Complete Main
$ d! ~% X7 o: R7 H7 a6 z. ?9 |* xDefault : Yes: D5 ~* k2 t4 h
Forced : No6 ]. [: y6 {' f$ m6 c; o2 H

0 v5 Z: J; a8 ~0 P, \% d  G; m) n

' }  V/ M2 a9 A9 @. v3 D+ j8 l( s$ SText/ @7 H4 J8 H) o% ~0 R
ID : 3
: M2 w( Y4 B( \6 j! q$ h! \Format : UTF-8( _$ t+ m: b, ~  D# Y
Codec ID : S_TEXT/UTF8; a+ L; k. ~$ n+ ]# c
Codec ID/Info : UTF-8 Plain Text
, @9 P8 Y+ y4 i; m# w* `- v1 `  FDuration : 1 h 31 min4 V4 N( U) e% H' F0 `" y
Bit rate : 113 b/s
" y4 k* w" z' P0 G( ?3 aCount of elements : 2460
) x3 Q9 u& u5 j6 P! LStream size : 76.2 KiB (0%)3 h# U) ]3 O, M$ M# C* k7 Z8 T/ F' W3 w
Language : English: d9 ^& @4 @5 F& }3 I5 c- d
Default : No( O0 o4 ~( P7 o) ~0 ^% o
Forced : No4 m5 D5 i5 q% D5 c. P1 x
3 S# G# S' i5 S& u% d( _

3 N+ ?( m/ P; a  M" F蓝光高清网提示您  点击下方附件名称  马上开始下载- v  K) H3 t1 J. C* c( G; q

6 Q# I! s3 y' L8 }

' f4 ?; G: F) m# T8 ~' U多版本下载时请注意区分
6 Q) ]4 W! }. k+ b6 f: J. `) y! s( S6 {+ ^- i8 C
; I& X% Y1 T! t
Two Minutes Of Fame/2分钟的成名4k 2.Minutes.of.Fame.2020.HDR.2160p.WEB.H265电影下载- @6 h3 I9 v8 |3 E
. _% s8 ~$ R; |# g

- z; G; L3 S4 V2分钟的成名4k 2.Minutes.of.Fame.2020.HDR.2160p.WEB.H265【4K  2160p 10.32 GB】
5 K: P1 [5 H/ L& n6 O 2分钟的成名4k 2.Minutes.of.Fame.2020.HDR.2160p.WEB.H265-HUZZAH.torrent (文件大小:52.2 KB)
回复

使用道具 举报

 

精彩评论9

正序浏览
gdlmxia 发表于 2020-6-26 17:21:43 | 显示全部楼层
 
太好啦&萬分感謝版主的無私發佈分享%
回复

使用道具 举报

 
yusong 发表于 2020-6-26 22:18:55 | 显示全部楼层
 

: E5 f1 n' ~# J6 Z6 x& @身体健康,天天开心,祝蓝光高清网越办越红火
回复

使用道具 举报

 
mt2356168 发表于 2020-6-27 15:46:48 | 显示全部楼层
 

$ k8 d* S7 E: S* }6 d1 J8 T# [* t支持蓝光高清网!
回复

使用道具 举报

 
wrangler7 发表于 2020-6-29 08:17:19 | 显示全部楼层
 
非常感谢蓝光高清网分享的各种知识和资源,祝蓝光高清网越来越好
回复

使用道具 举报

 
渝A@Happy666 发表于 2020-7-4 08:31:56 | 显示全部楼层
 

/ x4 K; _, v' l( x支持蓝光高清网!
回复

使用道具 举报

 
wrangler7 发表于 2020-7-20 08:12:24 | 显示全部楼层
 

- n- i9 Z( E; a' i; a2 V3 q非常感谢蓝光高清网给大家的享乐4k,祝蓝光高清网越办越好!
回复

使用道具 举报

 
侠客 发表于 2020-11-4 13:58:11 | 显示全部楼层
 
老大辛苦了
回复

使用道具 举报

 
入眼皆是你余生 发表于 2020-12-1 22:44:06 | 显示全部楼层
 

( v9 `" p$ U( c感谢蓝光高清网提供的优质资源,希望网站越办越好。
回复

使用道具 举报

 
入眼皆是你余生 发表于 2020-12-1 22:57:03 | 显示全部楼层
 

4 B9 U; W4 z0 I好资源,顶一个
回复

使用道具 举报

 
您需要登录后才可以回帖 登录 | 立即注册

本版积分规则

0关注

0粉丝

745帖子

  • 版块推荐
  • 百宝箱

电影推荐

更多+

热门电影

更多+

下载APP 签到更便捷

官方微信

手机APP

蓝光高清网

专注4k电影、4k视频、VR视频、高清电影、蓝光原盘资源

本站内容部分由用户自主分享和转载自互联网,转载目的在于传递更多信息,并不代表本网赞同其观点和对其真实性负责。

如有侵权、违反国家法律政策行为,请联系我们,我们会第一时间及时清除和处理!

举报反馈邮箱:lanniao@1080pro.net

Copyright   ©2019-2020  蓝光高清网    |网站地图