欧洲歌唱大赛:火焰传说
4K SDR 
6.5
  • 年代: 2020年
  • 国家/地区: 美国
  • 类型: 喜剧 音乐 
  • 导演: 大卫·道金
  • 音轨: Dolby TrueHD 5.1 
  • 时长: 120分钟
  • 主演:威尔·法瑞尔 / 瑞秋·麦克亚当斯 / 丹·史蒂文斯 / 皮尔斯·布鲁斯南
特别声明:本站提供的所有高清电影作品均是在网上搜集,任何涉及商业盈利目的均不得使用,否则产生的一切后果将由您自己承担!本站将不对本站的任何内容负任何法律责任!该下载内容仅做宽带测试使用,请在下载后24小时内删除。请购买正版! 本站所有资源均由网上收集而来,版权归原影音公司所有,如果侵犯了你的权益,请通知我们,我们会及时删除侵权内容.

欧洲歌唱大赛:火焰传说 4k Eurovision.Song.Contest.The.Story.of.Fire.Saga.2020.2160p.NF.WEBRip.x265.10bit.SDR.DDP5.1.x265电影下载—23.02 GB

[复制链接]
蓝鸟 发表于 7 天前 | 显示全部楼层 |阅读模式 打印 上一主题 下一主题

7 |7 `3 q+ [6 Z9 t0 {; i6 ~+ {) G  I/ r2 @* x" ?+ P
简       介
" y( b& V) J! a) P, \7 [# j0 C
/ e4 s" u" C/ E5 g2 X  雄心壮志的冰岛音乐人拉斯和席格芮得到千载难逢的机会,代表国家参加全球最盛大的歌唱比赛。他们终于有机会证明:值得做的梦,就值得勇敢去追。+ t% d% w2 r2 ]
- s7 N- Q! i3 n6 v; O+ I+ D. p# g

2 W4 {1 d6 a+ Q$ t, d0 L  A1 w6 R影片参数! {# K9 f& w. N7 w
欧洲歌唱大赛:火焰传说4k Eurovision.Song.Contest.The.Story.of.Fire.Saga.2020.2160p.NF.WEBRip.x265.10bit.SDR.DDP5.1.x265电影信息
# o5 H9 V% Q8 ?1 T6 Z9 `Video" s1 W, k! n+ T1 X, @) }- k4 l
ID : 1
! p: L- G8 E! q8 aFormat : HEVC" w  X8 t( Z$ L' R$ {' T
Format/Info : High Efficiency Video Coding
' f) Y, z: b1 r, y: B# r% u1 RFormat profile : Main 10@L5.1@High
, n! e, m* A' R. i6 h3 U1 OCodec ID : V_MPEGH/ISO/HEVC
6 Z" ^' K& u4 H4 u8 uDuration : 2 h 3 min& l. ?/ t! o, h& y: z
Bit rate : 26.0 Mb/s8 [; g* {7 g  L  r4 o* s- B9 p
Width : 3 840 pixels% r  @6 c& M" R6 E* t9 {& \3 }! m
Height : 2 076 pixels
. l' r; Z* t6 f- n+ r4 K/ LDisplay aspect ratio : 1.85:1
; j, U! B9 m- [1 dFrame rate mode : Constant: A( h3 j( K& {1 p: d: C
Frame rate : 24.000 FPS! E! l! J/ t2 A) B3 @! P, a5 T/ P
Color space : YUV
: g$ K$ O% }9 z: A6 nChroma subsampling : 4:2:0
- o4 b4 a7 Y) O/ qBit depth : 10 bits
7 c; Y) I" x' y# q$ \Bits/(Pixel*Frame) : 0.136
' d+ n* u, B1 GStream size : 22.5 GiB (98%)
0 n6 H2 u! V0 X, [, u. ]Writing library : x265 3.3+10-g08d895bb6:[Windows][GCC 10.0.1][64 bit] 10bit
. ], D3 T8 X. H6 l% a2 hEncoding settings : cpuid=1111039 / frame-threads=4 / numa-pools=24 / wpp / no-pmode / no-pme / no-psnr / no-ssim / log-level=2 / input-csp=1 / input-res=3840x2076 / interlace=0 / total-frames=177957 / level-idc=51 / high-tier=1 / uhd-bd=0 / ref=5 / no-allow-non-conformance / repeat-headers / annexb / aud / hrd / info / hash=0 / no-temporal-layers / open-gop / min-keyint=24 / keyint=250 / gop-lookahead=0 / bframes=8 / b-adapt=2 / b-pyramid / bframe-bias=0 / rc-lookahead=40 / lookahead-slices=8 / scenecut=40 / hist-scenecut=0 / radl=0 / no-splice / no-intra-refresh / ctu=64 / min-cu-size=8 / no-rect / no-amp / max-tu-size=32 / tu-inter-depth=4 / tu-intra-depth=4 / limit-tu=4 / rdoq-level=0 / dynamic-rd=0.00 / no-ssim-rd / signhide / no-tskip / nr-intra=0 / nr-inter=0 / no-constrained-intra / strong-intra-smoothing / max-merge=4 / limit-refs=1 / no-limit-modes / me=1 / subme=5 / merange=57 / temporal-mvp / no-frame-dup / no-hme / weightp / weightb / no-analyze-src-pics / deblock=-3:-3 / no-sao / no-sao-non-deblock / rd=4 / selective-sao=0 / early-skip / rskip / no-fast-intra / no-tskip-fast / no-cu-lossless / b-intra / no-splitrd-skip / rdpenalty=0 / psy-rd=2.00 / psy-rdoq=0.00 / no-rd-refine / no-lossless / cbqpoffs=0 / crqpoffs=0 / rc=crf / crf=19.0 / qcomp=0.60 / qpstep=4 / stats-write=0 / stats-read=0 / vbv-maxrate=160000 / vbv-bufsize=160000 / vbv-init=0.9 / crf-max=0.0 / crf-min=0.0 / ipratio=1.30 / pbratio=1.20 / aq-mode=1 / aq-strength=0.85 / no-cutree / zone-count=0 / no-strict-cbr / qg-size=32 / no-rc-grain / qpmax=69 / qpmin=0 / no-const-vbv / sar=1 / overscan=0 / videoformat=5 / range=0 / colorprim=1 / transfer=1 / colormatrix=1 / chromaloc=0 / display-window=0 / cll=0,0 / min-luma=0 / max-luma=1023 / log2-max-poc-lsb=8 / vui-timing-info / vui-hrd-info / slices=1 / no-opt-qp-pps / no-opt-ref-list-length-pps / no-multi-pass-opt-rps / scenecut-bias=0.05 / hist-threshold=0.01 / no-opt-cu-delta-qp / no-aq-motion / no-hdr10 / no-hdr10-opt / no-dhdr10-opt / no-idr-recovery-sei / analysis-reuse-level=0 / analysis-save-reuse-level=0 / analysis-load-reuse-level=0 / scale-factor=0 / refine-intra=0 / refine-inter=0 / refine-mv=1 / refine-ctu-distortion=0 / no-limit-sao / ctu-info=0 / no-lowpass-dct / refine-analysis-type=0 / copy-pic=1 / max-ausize-factor=1.0 / no-dynamic-refine / no-single-sei / no-hevc-aq / no-svt / no-field / qp-adaptation-range=1.00 / no-scenecut-aware-qpconformance-window-offsets / right=0 / bottom=0 / decoder-max-rate=0" W$ ]' `8 I; D) ^+ E/ M
Default : Yes
, l6 Q- o! u5 }0 T8 H$ Y" l6 @Forced : No( N# X* q2 M. u' K/ w6 ?( t7 w
Color range : Limited
6 d5 f+ S' G* O9 T8 a$ D9 {Color primaries : BT.709( `2 Z( [( A9 @" ?0 E% r
Transfer characteristics : BT.709
" p& a2 q( T1 Q- i& DMatrix coefficients : BT.709
; b# y8 k6 v: [* N: C
( }, ?- y, Q( K3 ~

: n$ I9 s  ^2 DAudio
% r! v) h7 e. K+ cID : 2+ w; W1 F, ]$ O" U( a5 \  t
Format : E-AC-3) O% @9 J3 {9 t5 m8 ]+ Z: {/ W
Format/Info : Enhanced AC-3
, w$ E$ [! @, ZCommercial name : Dolby Digital Plus* ~9 G$ P, ?7 }
Codec ID : A_EAC3
) T, W4 W# B$ ODuration : 2 h 3 min4 S$ W9 ]( @1 \+ F' S) h
Bit rate mode : Constant
3 K. C% {% x/ S1 x, aBit rate : 640 kb/s+ W$ ^4 Y) u7 o% _) }8 o0 D
Channel(s) : 6 channels
* F" Z5 y8 s( h  lChannel layout : L R C LFE Ls Rs
8 L! Q2 B- N3 f- rSampling rate : 48.0 kHz
  S/ U( k5 {7 X& x  w" H4 \Frame rate : 31.250 FPS (1536 SPF)  u, ]) |' |9 v
Compression mode : Lossy
  l; |6 D8 W/ G: D/ \Stream size : 566 MiB (2%)
" b. n! S# o- D+ d2 D( B3 dTitle : English0 v; Z' T% r7 ]
Language : English( `7 E' m! @% g. H2 v
Service kind : Complete Main
! m$ c9 g1 b/ W/ A' M- _) vDefault : Yes5 W. h5 ~7 ?1 ~3 R+ D
Forced : No) [$ ~" L8 W7 R$ d
# M$ L, B& b9 l( y0 k1 b; Z$ E! ?! w

5 k# C; S& l6 k' i1 C
+ e# Q8 K. r4 E
蓝光高清网提示您  点击下方附件名称  马上开始下载
3 C" z3 h" a  g: x# B3 X
7 v1 c; a6 l& i' M欧洲歌唱大赛:火焰传说4k Eurovision.Song.Contest.The.Story.of.Fire.Saga.2020.2160p.NF.WEBRip.x265.10bit.SDR.DDP5.1.x265电影下载2 [1 J+ U7 U3 d( Y% w$ a
; R. F) J& x* H# A2 y
欧洲歌唱大赛:火焰传说4k Eurovision.Song.Contest.The.Story.of.Fire.Saga.2020.2160p.NF.WEBRip.x265.10bit.SDR.DDP5.1.x265【4K  2160p 23.02 GB】* z! J3 a- F6 q. W+ B
欧洲歌唱大赛:火焰传说4k Eurovision.Song.Contest.The.Story.of.Fire.Saga.2.torren.torrent 
         (58.17 KB    阅读权限: 20)
加入蓝光高清网VIP会员  无限制下载本站所有资源---点这里

资源下载、资源播放、字幕使用、无法下载等常见问题---点这里
回复

使用道具 举报

精彩评论4

wangxiaojian0 发表于 6 天前 | 显示全部楼层
非常感谢蓝光高清网分享的各种知识和资源,祝蓝光高清网越来越好
回复

使用道具 举报

mouseking007 发表于 6 天前 | 显示全部楼层
非常感谢蓝光高清网分享的各种知识和资源,祝蓝光高清网越来越好
回复

使用道具 举报

wrangler7 发表于 4 天前 | 显示全部楼层
( {5 R5 j1 n4 B: U  I/ Y
非常感谢蓝光高清网给大家的享乐4k,祝蓝光高清网越办越好!
回复

使用道具 举报

gdlmxia 发表于 4 天前 | 显示全部楼层
太好啦&萬分感謝版主的無私發佈分享%
回复

使用道具 举报

您需要登录后才可以回帖 登录 | 立即注册

本版积分规则

关注0

粉丝1

帖子83757

发布主题
最新电影 论坛
本期活动
联系我们
点击这里联系客服

服务时间:
周一到周日8:00-23:30

  • 打开微信扫一扫
    关注公众号

  • 手机QQ扫一扫
    添加客服

手机版蓝光高清网 |网站地图

Powered by Discuz! X3.4  © 2001-2013 Comsenz Inc.