灰猎犬号
4K HDR 
6.2
  • 年代: 2020年
  • 国家/地区: 美国
  • 类型: 剧情 战争 
  • 导演: 亚伦·施耐德
  • 音轨: DTS-HD.MA 5.1 Dolby TrueHD 5.1 Dolby Atmos 
  • 时长: 91分钟
  • 主演:汤姆·汉克斯 / 伊丽莎白·苏 / 斯蒂芬·格拉汉姆 / 曼努埃尔·加西亚-鲁尔福 / 卡尔·格洛斯曼
特别声明:本站提供的所有高清电影作品均是在网上搜集,任何涉及商业盈利目的均不得使用,否则产生的一切后果将由您自己承担!本站将不对本站的任何内容负任何法律责任!该下载内容仅做宽带测试使用,请在下载后24小时内删除。请购买正版! 本站所有资源均由网上收集而来,版权归原影音公司所有,如果侵犯了你的权益,请通知我们,我们会及时删除侵权内容.

灰猎犬号4K Greyhound.2020.2160p.ATVP.WEB-DL.x265.10bit.HDR.DDP5.1.Atmos电影下载—15.81 GB

[复制链接]
蓝鸟 发表于 2020-7-10 18:40:37 | 显示全部楼层 |阅读模式 打印 上一主题 下一主题
% p: X  n4 o; ^& \% S

2 {; i! K& J) R. P$ I( s简       介2 V+ @: ?% \  w
! _" u7 H, Y2 P2 v
  影片讲述二战初期,由37支盟军船只组成的护航舰队在欧内斯特·克劳斯(汤姆·汉克斯饰)舰长率领的一艘美国驱逐舰指挥下,穿越险恶的北大西洋,同时还要与德国U型潜艇狼群的周旋。. S, ^# A& e7 [: h- `

6 @8 K$ `( h7 i. S) _

5 _" ^& I9 q2 b- W
" m: u" Y+ y& r0 s! a+ G
6 [8 Z! J5 L0 i4 t1 k# Q" L
影片参数
' H; F* U$ m* s  t: f! j7 \, H怒海战舰(台) / 雷霆战舰:猎犬号(港) / 灰狗/灰猎犬号4K Greyhound.2020.2160p.ATVP.WEB-DL.x265.10bit.HDR.DDP5.1.Atmos电影信息' l$ j' `1 C# ^5 |2 [
Video1 O8 |# y6 T/ l* u5 C
ID : 19 j2 \7 H  ?2 m; E
Format : HEVC
8 y9 W9 ^( A' ^! k/ J; J' OFormat/Info : High Efficiency Video Coding
8 t+ @8 d& M; rFormat profile : Main 10@L5@High
) _0 f5 J7 [+ E6 z! PHDR format : SMPTE ST 2086, HDR10 compatible7 R; b7 Y! U/ I. S
Codec ID : V_MPEGH/ISO/HEVC! \; D5 P4 u8 W9 t
Duration : 1 h 31 min: Q7 g  k5 d7 l+ |
Bit rate : 23.9 Mb/s
: ^3 v$ G! @7 C! ~+ b  MWidth : 3 840 pixels  p& T& A7 F; Z! P: I
Height : 1 604 pixels
; J  q8 C+ V9 W& ?Display aspect ratio : 2.40:1
0 B2 Q7 B( u# ?Frame rate mode : Constant
9 X) I; {1 @( ]' w, N9 `3 GFrame rate : 23.976 (23976/1000) FPS- y2 p. A- F% M" {, p- Z5 {
Color space : YUV
5 R# M  s! M) p# c8 ~Chroma subsampling : 4:2:0 (Type 2)6 n# L$ ~# n6 \0 W8 L
Bit depth : 10 bits- ]5 d( E- M, _3 }6 i
Bits/(Pixel*Frame) : 0.162
( G7 L3 u: P/ r1 oStream size : 15.3 GiB (97%)) ~' f) o8 r5 d5 H
Language : English; i/ x+ w2 |0 E. u/ s. j  v" s, T
Default : Yes
: L" R+ N3 {! {& M! @! L3 I* KForced : No6 S# i% L. m; ^6 d3 g% o5 P& q2 `
Color range : Limited
/ x2 R6 W: Z7 t5 O3 ~7 k1 \Color primaries : BT.20201 I* j5 n& Z# A" l
Transfer characteristics : PQ
- E2 ]( A4 k& H7 r2 x3 oMatrix coefficients : BT.2020 non-constant
) s8 @0 J% N. n! VMastering display color primaries : Display P3
6 Q/ ^3 f' P  M. }Mastering display luminance : min: 0.0001 cd/m2, max: 1000 cd/m2
5 N; Q( u/ c6 [Maximum Content Light Level : 1044 cd/m2, V! E7 J. q9 a' p" R4 `3 v4 @; R
Maximum Frame-Average Light Level : 217 cd/m2
$ O$ T) p- Z' H* @) V$ U, I2 ~' P& B
Audio9 a2 ^  y  Z6 A9 Q) Y" Z1 T. @: r+ A' b
ID : 2* {; |7 r/ O& a& C6 ]( F0 `
Format : E-AC-3 JOC
: p. q/ m7 c$ k) e+ lFormat/Info : Enhanced AC-3 with Joint Object Coding
* S/ a! O: F0 }8 HCommercial name : Dolby Digital Plus with Dolby Atmos0 ?" c0 X* h( }, H0 d) E3 U
Codec ID : A_EAC3
) c9 B: D3 \7 ^) _; }0 \) \Duration : 1 h 31 min
9 N7 x. W: J: l# l* T2 x4 bBit rate mode : Constant# Z( T& Z& u$ N+ m  c$ K4 x
Bit rate : 768 kb/s- q% q: q+ S- q5 a0 e8 e4 m) Q6 M
Channel(s) : 6 channels
, r3 \% A) R$ X6 f; UChannel layout : L R C LFE Ls Rs/ s  D4 P. i# k- O& c( I
Sampling rate : 48.0 kHz2 k0 }# Y* K( d' m
Frame rate : 31.250 FPS (1536 SPF)
& i: z: M. l. |Compression mode : Lossy
5 }  i  B) N& l) bStream size : 504 MiB (3%)
/ L0 a( Y# ~; \; D; @5 B5 L/ ULanguage : English" C* C8 f# F/ I5 @; h
Service kind : Complete Main1 R9 |2 z% n8 n8 Q/ S1 d
Default : Yes2 I$ P, n; j/ P. _7 q  R
Forced : No
5 s% t0 N; I' _' XComplexity index : 16
/ P1 T$ `; b: b/ }& LNumber of dynamic objects : 154 `4 k, }' r! Z# D
Bed channel count : 1 channel
  @9 I, q+ i4 C  bBed channel configuration : LFE* W# Q9 {5 j5 N% \+ U

* O& J. v! u& Q& T5 I& c" w5 E9 V* k0 G  A+ y1 y+ E- }
精彩剧照+ y( N6 H" j7 s$ {

* x. g6 a, J8 w/ D% l. `; \: y: K7 Q
0 x# C% m( q7 X5 `

灰猎犬号4K Greyhound.2020.2160p.ATVP.WEB-DL.x265.10bit.HDR.DDP5.1.Atmos电影下载—15.81 GB

灰猎犬号4K Greyhound.2020.2160p.ATVP.WEB-DL.x265.10bit.HDR.DDP5.1.Atmos电影下载—15.81 GB

灰猎犬号4K Greyhound.2020.2160p.ATVP.WEB-DL.x265.10bit.HDR.DDP5.1.Atmos电影下载—15.81 GB

灰猎犬号4K Greyhound.2020.2160p.ATVP.WEB-DL.x265.10bit.HDR.DDP5.1.Atmos电影下载—15.81 GB

灰猎犬号4K Greyhound.2020.2160p.ATVP.WEB-DL.x265.10bit.HDR.DDP5.1.Atmos电影下载—15.81 GB

灰猎犬号4K Greyhound.2020.2160p.ATVP.WEB-DL.x265.10bit.HDR.DDP5.1.Atmos电影下载—15.81 GB
6 @& V& ]+ Q4 ?

- Z' z$ U3 g% j0 K0 y' o& {/ Y+ O0 {& O& i: [! S
蓝光高清网提示您  点击下方附件名即可开始下载, S5 Y0 ^: f; X  V5 i
. p8 E* V! y3 H
; f+ b, L3 T: t! L1 C
多版本下载时请注意区分$ G* H" k, k% p

, ]9 q8 s" T! p/ Z  o

/ a6 c- B9 P( k# S, ^* E怒海战舰(台) / 雷霆战舰:猎犬号(港) / 灰狗/灰猎犬号4K Greyhound.2020.2160p.ATVP.WEB-DL.x265.10bit.HDR.DDP5.1.Atmos电影下载  R% U+ {0 V/ R1 J

5 }8 i( N) G5 a; W: E! r, z
灰猎犬号4K Greyhound.2020.2160p.ATVP.WEB-DL.x265.10bit.HDR.DDP5.1.Atmos【15.81 GB】. ]$ V, ~; [2 F( @  ~

5 n1 }2 ^. s& A$ {8 I( D( U$ y 灰猎犬号4K Greyhound.2020.2160p.ATVP.WEB-DL.x265.10bit.HDR.DDP5.1.Atmos-N.torrent 
         (79.72 KB    阅读权限: 20)
加入蓝光高清网VIP会员  无限制下载本站所有资源---点这里

资源下载、资源播放、字幕使用、无法下载等常见问题---点这里
回复

使用道具 举报

精彩评论9

gdlmxia 发表于 2020-7-10 22:59:02 | 显示全部楼层
太好啦&萬分感謝版主的無私發佈分享%
回复

使用道具 举报

wrangler7 发表于 2020-7-13 08:15:20 | 显示全部楼层
! O6 K) ?9 _8 `& H( P! t; h
祝蓝光高清网越来越棒,希望大家都来蓝光高清网下载。
回复

使用道具 举报

zongminzm 发表于 2020-7-14 10:10:14 | 显示全部楼层
字幕不对啊
回复

使用道具 举报

yusong 发表于 2020-7-14 21:02:44 | 显示全部楼层

; L5 f, }2 }# b' {' d祝蓝光高清网越来越棒,希望大家都来蓝光高清网下载。
回复

使用道具 举报

LAJISE 发表于 2020-7-17 12:34:59 | 显示全部楼层
: }8 B% d5 N: l  P0 k
近期肺炎闹得挺厉害,大家伙还是多访问访问蓝光高清网,为国家做贡献。访问蓝光高清网,就是为国出力
回复

使用道具 举报

wrangler7 发表于 2020-7-18 10:04:58 | 显示全部楼层

6 O0 T, U1 p, ]& W祝蓝光高清网越来越棒,希望大家都来蓝光高清网下载。
回复

使用道具 举报

wrangler7 发表于 2020-7-18 10:09:09 | 显示全部楼层
4 B. R4 s1 c7 G7 F3 `" Z6 H
祝蓝光高清网越办越红火。
回复

使用道具 举报

huang552385880 发表于 2020-8-20 17:25:52 | 显示全部楼层
* x( F! d$ O, J( k- W$ s/ W
非常感谢蓝光高清网给大家的享乐4k,祝蓝光高清网越办越好!
回复

使用道具 举报

huang552385880 发表于 2020-8-20 17:27:01 | 显示全部楼层

7 x  Z, p1 F$ }5 X1 E4 P. C) ?; ~祝蓝光高清网越办越红火。
回复

使用道具 举报

您需要登录后才可以回帖 登录 | 立即注册

本版积分规则

关注0

粉丝1

帖子88155

发布主题
最新电影 论坛
本期活动
联系我们
点击这里联系客服

服务时间:
周一到周日8:00-23:30

  • 打开微信扫一扫
    关注公众号

  • 手机QQ扫一扫
    添加客服

手机版蓝光高清网 |网站地图

Powered by Discuz! X3.4 Licensed  © 2001-2013 Comsenz Inc.