蓝光高清网

开启左侧

灰猎犬号4K Greyhound.2020.2160p.ATVP.WEB-DL.x265.10bit.HDR.DDP5.1.Atmos电影下载—15.81 GB

  [复制链接]

2020-8-20 17:27:01 99792 17

蓝鸟 发表于 2020-7-10 18:40:37 |阅读模式

蓝鸟 楼主

2020-7-10 18:40:37

灰猎犬号
上映时间:2020年
类型:剧情 战争 
地区:美国 
导演:亚伦·施耐德
主演:汤姆·汉克斯 / 伊丽莎白·苏 / 斯蒂芬·格拉汉姆 / 曼努埃尔·加西亚-鲁尔福 / 卡尔·格洛斯曼
画质标准:4K HDR  封装音轨:DTS-HD.MA 5.1 Dolby TrueHD 5.1 Dolby Atmos 
豆瓣评分:6.2分
" |; i  X! `7 w9 t6 u* j( h

$ D7 B/ f) _: C, F: \简       介3 T: d2 F) g/ h& r( m/ o' }
! h8 M% Y+ y; n7 s+ a5 y
  影片讲述二战初期,由37支盟军船只组成的护航舰队在欧内斯特·克劳斯(汤姆·汉克斯饰)舰长率领的一艘美国驱逐舰指挥下,穿越险恶的北大西洋,同时还要与德国U型潜艇狼群的周旋。
! N( N: Y  D- T! m6 i' S/ y  B+ q% }4 L, W8 A

2 E5 o1 C. |9 z  e
6 a0 ^9 r* f  g& I% I4 r. Z
& R# @: ]/ y/ j" V0 A; m
影片参数
- ~  Q, W( u' L# {) D$ O6 o4 t8 S' K怒海战舰(台) / 雷霆战舰:猎犬号(港) / 灰狗/灰猎犬号4K Greyhound.2020.2160p.ATVP.WEB-DL.x265.10bit.HDR.DDP5.1.Atmos电影信息, ]& X) c7 A9 ?: I& g% e
Video9 p; F' E" Q- n8 s$ f' ?
ID : 1
) ?5 w- P$ P+ [9 ^; R* pFormat : HEVC
  h- J6 j$ ^) ~3 FFormat/Info : High Efficiency Video Coding
+ K: U- @# ^8 X: ^, bFormat profile : Main 10@L5@High4 n/ \7 ~$ d9 o% L3 t! W! ]
HDR format : SMPTE ST 2086, HDR10 compatible" C+ _4 e- V( D; I* b
Codec ID : V_MPEGH/ISO/HEVC
- ]# u3 s# Z' \! p% y5 A2 L9 g& J- MDuration : 1 h 31 min( O7 g- t% X  v
Bit rate : 23.9 Mb/s
5 Y8 X1 Q% |! c3 vWidth : 3 840 pixels3 I) S3 Q+ P: V; `
Height : 1 604 pixels4 u6 \- r( w  E) j
Display aspect ratio : 2.40:1. T" t$ j5 J' }& ^6 e
Frame rate mode : Constant) `  Q3 ^, w1 }" t
Frame rate : 23.976 (23976/1000) FPS
# a5 E/ B( B) FColor space : YUV
  Y5 c+ b! ~0 |2 z5 x7 Y  QChroma subsampling : 4:2:0 (Type 2)
2 o4 J; R2 g$ R& E1 lBit depth : 10 bits2 q& C" D0 I4 L1 S
Bits/(Pixel*Frame) : 0.1628 u: ?2 I, e" R! }* U  X) t
Stream size : 15.3 GiB (97%)
( n& U  `3 a' w5 R- D9 ALanguage : English+ n6 z  D) d' H2 S, Z8 Y
Default : Yes! ?9 x8 n- @* @9 Z8 d
Forced : No) ^, B4 ~6 d+ S$ K3 C$ H) t
Color range : Limited
1 {: P+ O& V& i- N( CColor primaries : BT.2020
1 f" L; O5 F% W1 z# a' y# hTransfer characteristics : PQ3 U3 M8 i8 F" k. R( j4 D$ o$ R, [( A  o
Matrix coefficients : BT.2020 non-constant
6 p* q" ]5 G+ |* D* j; _; yMastering display color primaries : Display P3
- u) b  |! `& {; _/ OMastering display luminance : min: 0.0001 cd/m2, max: 1000 cd/m2; T2 e5 `% p  @/ k6 ~- d5 c
Maximum Content Light Level : 1044 cd/m2; I8 B) D) y7 C8 w+ l! h9 q0 F
Maximum Frame-Average Light Level : 217 cd/m2: D5 ^& u$ ]8 w, x( |0 L

1 v$ \! u/ Q9 s7 Y. z4 V! F+ KAudio& _4 d3 a8 T8 ]7 f
ID : 2
/ C' K8 b- }/ E4 Y% N  O2 y; m4 DFormat : E-AC-3 JOC: [  u0 C8 P; [$ h( w9 S; u
Format/Info : Enhanced AC-3 with Joint Object Coding
& z: L3 l- O7 k  B: {Commercial name : Dolby Digital Plus with Dolby Atmos/ ]4 S  a0 D: ]' o# x" s
Codec ID : A_EAC37 l2 f0 u* v$ Z5 I
Duration : 1 h 31 min* r$ K% d. p. l9 g8 B6 I
Bit rate mode : Constant
' k3 G- x5 T. r5 kBit rate : 768 kb/s
: G+ M+ ]* l/ d/ z- QChannel(s) : 6 channels
3 o& I& O. Z8 v3 @. y9 KChannel layout : L R C LFE Ls Rs9 P9 `/ z8 S# S' Q0 s9 j! T: p
Sampling rate : 48.0 kHz
9 t5 n6 b; u. E4 ]1 L( }Frame rate : 31.250 FPS (1536 SPF)7 u- T) O5 i: K( `8 t" L# N/ y& S
Compression mode : Lossy
, Q) j$ s- Q4 b% q  ]Stream size : 504 MiB (3%)
" v: @1 }0 E! z6 e: e; iLanguage : English' \2 G- v6 Z. `# [8 y# o
Service kind : Complete Main
1 h7 c; [5 T9 b8 R0 T  V% m& @9 b6 oDefault : Yes
8 }( x6 s' L! g; F( p; _$ O8 }Forced : No
! L$ f# ?( S( {9 H7 o: BComplexity index : 16
, d7 p4 B+ G' ]1 v% ENumber of dynamic objects : 151 z2 |$ B) @1 c7 w8 _5 m% P: e: |
Bed channel count : 1 channel* {0 S" e( c* c$ y0 J8 Z
Bed channel configuration : LFE
( X$ j6 u% |/ V9 h8 k/ k4 H' S3 r9 y2 J; i/ d7 L
: a" ~9 h5 D4 Z8 g2 f2 t
精彩剧照
. D" Z" c. B. _1 o$ {: r& `0 W  i, D6 \* }  \% k3 q

. t! H* f) `4 T; i+ i

灰猎犬号4K Greyhound.2020.2160p.ATVP.WEB-DL.x265.10bit.HDR.DDP5.1.Atmos电影下载—15.81 GB

灰猎犬号4K Greyhound.2020.2160p.ATVP.WEB-DL.x265.10bit.HDR.DDP5.1.Atmos电影下载—15.81 GB

灰猎犬号4K Greyhound.2020.2160p.ATVP.WEB-DL.x265.10bit.HDR.DDP5.1.Atmos电影下载—15.81 GB

灰猎犬号4K Greyhound.2020.2160p.ATVP.WEB-DL.x265.10bit.HDR.DDP5.1.Atmos电影下载—15.81 GB

灰猎犬号4K Greyhound.2020.2160p.ATVP.WEB-DL.x265.10bit.HDR.DDP5.1.Atmos电影下载—15.81 GB

灰猎犬号4K Greyhound.2020.2160p.ATVP.WEB-DL.x265.10bit.HDR.DDP5.1.Atmos电影下载—15.81 GB
' A" X' S- c& C  f% R! k
* e: L& a* [/ ^0 d& p' \8 A! ~
  R  \# G9 m3 O
蓝光高清网提示您  点击下方附件名即可开始下载
- U! ^" k8 @4 k: v8 u  w; W8 L/ y* Z" Y/ T# P& E
$ L6 G+ r, g9 N( _
多版本下载时请注意区分+ p: J6 @- K9 U4 f/ e1 Z

" P8 Y5 ?( E1 ?7 n) y$ k4 [6 A
# K' D) p/ \: B/ R; i7 v
怒海战舰(台) / 雷霆战舰:猎犬号(港) / 灰狗/灰猎犬号4K Greyhound.2020.2160p.ATVP.WEB-DL.x265.10bit.HDR.DDP5.1.Atmos电影下载
- _, K2 M! T4 `' b  k) X8 q4 S( \" @; {3 r( Q2 c/ W
灰猎犬号4K Greyhound.2020.2160p.ATVP.WEB-DL.x265.10bit.HDR.DDP5.1.Atmos【15.81 GB】# k, C6 P8 s- j) ?( ~
* v& |2 T, w7 G5 e$ ~8 R2 g
灰猎犬号4K Greyhound.2020.2160p.ATVP.WEB-DL.x265.10bit.HDR.DDP5.1.Atmos-N.torrent (79.72 KB)
加入蓝光高清网VIP会员  无限制下载本站所有资源---点这里

资源下载、资源播放、字幕使用、无法下载等常见问题---点这里
回复

使用道具 举报

全部回复17

gdlmxia 发表于 2020-7-10 22:59:02

gdlmxia 沙发

2020-7-10 22:59:02

太好啦&萬分感謝版主的無私發佈分享%
回复 支持 反对

使用道具 举报

wrangler7 发表于 2020-7-13 08:15:20

wrangler7 板凳

2020-7-13 08:15:20


* c4 F) X* I) ?# l, y* k祝蓝光高清网越来越棒,希望大家都来蓝光高清网下载。
回复 支持 反对

使用道具 举报

zongminzm 发表于 2020-7-14 10:10:14

zongminzm 地板

2020-7-14 10:10:14

字幕不对啊
回复 支持 反对

使用道具 举报

yusong 发表于 2020-7-14 21:02:44

yusong 5#

2020-7-14 21:02:44


3 f' w% k2 ^. d+ r. J+ P5 y祝蓝光高清网越来越棒,希望大家都来蓝光高清网下载。
回复 支持 反对

使用道具 举报

LAJISE 发表于 2020-7-17 12:34:59

LAJISE 6#

2020-7-17 12:34:59


' i7 ~8 H8 ~1 l8 {; V! A' H( Y  [3 m近期肺炎闹得挺厉害,大家伙还是多访问访问蓝光高清网,为国家做贡献。访问蓝光高清网,就是为国出力
回复 支持 反对

使用道具 举报

wrangler7 发表于 2020-7-18 10:04:58

wrangler7 7#

2020-7-18 10:04:58

' U$ j4 @: @) ~, X+ E( }7 g, j
祝蓝光高清网越来越棒,希望大家都来蓝光高清网下载。
回复 支持 反对

使用道具 举报

wrangler7 发表于 2020-7-18 10:09:09

wrangler7 8#

2020-7-18 10:09:09


0 g; s6 X  q$ Z+ S祝蓝光高清网越办越红火。
回复 支持 反对

使用道具 举报

huang552385880 发表于 2020-8-20 17:25:52

huang552385880 9#

2020-8-20 17:25:52

4 Y" I# v' K$ a% Q3 w; r6 z1 {
非常感谢蓝光高清网给大家的享乐4k,祝蓝光高清网越办越好!
回复 支持 反对

使用道具 举报

huang552385880 发表于 2020-8-20 17:27:01

huang552385880 10#

2020-8-20 17:27:01


- b4 o0 O; }/ T! a& {) Q+ b祝蓝光高清网越办越红火。
回复 支持 反对

使用道具 举报

发表回复

您需要登录后才可以回帖 登录 | 立即注册

返回列表 本版积分规则

  • 发帖

  • 在线客服

  • 微信

  • 客户端

  • 返回顶部