[喜剧片] 出情致胜/情欲纽约 Sidewalks.of.New.York.2001.1080p.AMZN.WEBRip.DDP2.0.x264-alfaHD 7.59GB

[复制链接]
蓝鸟 发表于 2020-7-26 13:37:54 | 显示全部楼层 |阅读模式 打印 上一主题 下一主题


译  名 出情致胜 / 情欲纽约 / 纽约人行道
片  名 Sidewalks of New York
年  代 2001
产  地 美国
类  别 喜剧 / 爱情
语  言 英语
上映日期 2002-05-10
IMDb评分  6.4/10 from 6329 users
IMDb链接  https://www.imdb.com/title/tt0239986
豆瓣评分 7.2/10 from 53 users
豆瓣链接 https://movie.douban.com/subject/1306667/
片  长 108 分钟
导  演 爱德华·伯恩斯 Edward Burns
编  剧 爱德华·伯恩斯 Edward Burns
主  演 布莱特妮·墨菲 Brittany Murphy


标  签 爱情 | EdwardBurns | 美国 | BrittanyMuphy | romance | 爵士电影 | 电影 | 2001

简  介  

  暂无相关剧情介绍



该资源信息参数
  1. Video
  2. ID                                       : 1
  3. Format                                   : AVC
  4. Format/Info                              : Advanced Video Codec
  5. Format profile                           : High@L4
  6. Format settings                          : CABAC / 4 Ref Frames
  7. Format settings, CABAC                   : Yes
  8. Format settings, Reference frames        : 4 frames
  9. Codec ID                                 : V_MPEG4/ISO/AVC
  10. Duration                                 : 1 h 47 min
  11. Bit rate mode                            : Constant
  12. Bit rate                                 : 10 000 kb/s
  13. Width                                    : 1 920 pixels
  14. Height                                   : 1 040 pixels
  15. Display aspect ratio                     : 1.85:1
  16. Frame rate mode                          : Constant
  17. Frame rate                               : 23.976 (24000/1001/45378) FPS
  18. Color space                              : YUV
  19. Chroma subsampling                       : 4:2:0
  20. Bit depth                                : 8 bits
  21. Scan type                                : Progressive
  22. Bits/(Pixel*Frame)                       : 0.209
  23. Stream size                              : 7.42 GiB (98%)
  24. Language                                 : English
  25. Default                                  : Yes
  26. Forced                                   : No
  27. Color range                              : Limited
  28. Color primaries                          : BT.709
  29. Transfer characteristics                 : BT.709
  30. Matrix coefficients                      : BT.709

  31. Audio
  32. ID                                       : 2
  33. Format                                   : E-AC-3
  34. Format/Info                              : Enhanced AC-3
  35. Commercial name                          : Dolby Digital Plus
  36. Codec ID                                 : A_EAC3
  37. Duration                                 : 1 h 47 min
  38. Bit rate mode                            : Constant
  39. Bit rate                                 : 224 kb/s
  40. Channel(s)                               : 2 channels
  41. Channel layout                           : L R
  42. Sampling rate                            : 48.0 kHz
  43. Frame rate                               : 31.250 FPS (1536 SPF)
  44. Compression mode                         : Lossy
  45. Stream size                              : 173 MiB (2%)
  46. Language                                 : English
  47. Service kind                             : Complete Main
  48. Default                                  : Yes
  49. Forced                                   : No

  50. Text #1
  51. ID                                       : 3
  52. Format                                   : UTF-8
  53. Codec ID                                 : S_TEXT/UTF8
  54. Codec ID/Info                            : UTF-8 Plain Text
  55. Duration                                 : 1 h 47 min
  56. Bit rate                                 : 111 b/s
  57. Count of elements                        : 1830
  58. Stream size                              : 87.6 KiB (0%)
  59. Language                                 : English
  60. Default                                  : No
  61. Forced                                   : No

  62. Text #2
  63. ID                                       : 4
  64. Format                                   : UTF-8
  65. Codec ID                                 : S_TEXT/UTF8
  66. Codec ID/Info                            : UTF-8 Plain Text
  67. Duration                                 : 1 h 47 min
  68. Bit rate                                 : 112 b/s
  69. Count of elements                        : 1849
  70. Stream size                              : 88.6 KiB (0%)
  71. Title                                    : SDH
  72. Language                                 : English
  73. Default                                  : No
  74. Forced                                   : No

  75. Menu
  76. 00:00:00.000                             : en:Studio Logos
  77. 00:00:21.000                             : eneople talk about losing their virginity
  78. 00:02:45.000                             : en:Sue breaks up with Tommy, Opening Credits
  79. 00:06:36.000                             : en:Maria and Tommy meet
  80. 00:09:30.000                             : en:Maria has trouble with her ex
  81. 00:13:59.000                             : en:Ben chats with Gio and Ashley
  82. 00:18:49.000                             : en:Ashley has trouble with her boyfriend
  83. 00:24:19.000                             : en:Annie and Griffin go to dinner with Harry and Hilary
  84. 00:31:30.000                             : en:Annie shows Tommy an apartment
  85. 00:34:21.000                             : en:Tommy and Maria go on their first date
  86. 00:39:30.000                             : en:Ben writes a song for Ashley
  87. 00:42:54.000                             : en:Ashley and Griffin go to dinner
  88. 00:56:25.000                             : en:Maria brings Tommy home with her
  89. 01:01:33.000                             : en:Ben asks Ashley on a date
  90. 01:12:58.000                             : en:Ben returns home from dinner
  91. 01:16:04.000                             : en:Annie runs into Tommy
  92. 01:19:52.000                             : en:Tommy considers his options and Maria has some good news
  93. 01:24:45.000                             : en:Griffin confronts Ashley and Maria dodges Tommy\"s calls
  94. 01:26:07.000                             : en:Ben freaks out Ashley and she meets with Griffin
  95. 01:31:10.000                             : en:The couples meet for dinner again
  96. 01:33:27.000                             : en:Maria looks for Tommy
  97. 01:37:53.000                             : en:Katy reads Ashley\"s horoscope
  98. 01:39:27.000                             : en:The group moves on with their lives
  99. 01:43:29.000                             : en:End Credits
复制代码



精彩剧照







蓝光高清网提示您 点击下方附件名称 马上开始下载

出情致胜/情欲纽约 Sidewalks.of.New.York.2001.1080p.AMZN.WEBRip.DDP2.0.x264-alfaHD 7.59GB


加入蓝光高清网VIP会员  无限制下载本站所有资源---点这里

资源下载、资源播放、字幕使用、无法下载等常见问题---点这里
回复

使用道具 举报

精彩评论1

独行大侠 发表于 2020-9-16 10:37:22 | 显示全部楼层
谢谢楼主分享
回复

使用道具 举报

您需要登录后才可以回帖 登录 | 立即注册

本版积分规则

关注0

粉丝1

帖子88157

发布主题
最新电影 论坛
本期活动
联系我们
点击这里联系客服

服务时间:
周一到周日8:00-23:30

  • 打开微信扫一扫
    关注公众号

  • 手机QQ扫一扫
    添加客服

手机版蓝光高清网 |网站地图

Powered by Discuz! X3.4 Licensed  © 2001-2013 Comsenz Inc.