[喜剧片] 美国樱草 American.Cowslip.2009.720p.BluRay.x264-LATENCY 4.65GB

[复制链接]
蓝鸟 发表于 2020-7-28 13:57:56 | 显示全部楼层 |阅读模式 打印 上一主题 下一主题




译  名 美国樱草
片  名 American Cowslip
年  代 2009
产  地 美国
类  别 喜剧
语  言 英语
上映日期 2009-07-24
IMDb评分  5.1/10 from 484 users
IMDb链接  https://www.imdb.com/title/tt0850648
豆瓣评分 5.3/10 from 49 users
豆瓣链接 https://movie.douban.com/subject/3072780/
导  演 Mark David
编  剧 罗尼·吉恩·贝尔维斯 Ronnie Gene Blevins / Mark David
主  演 罗尼·吉恩·贝尔维斯 Ronnie Gene Blevins
       戴安·拉德 Diane Ladd
       雷普·汤恩 Rip Torn


标  签 美国 | 美国电影 | 爱情 | 文艺电影 | 喜剧 | 生命 | 毒品 | 烂片

简  介  

  在布莱斯,加利福尼亚州,一个偏远的沙漠小镇,伊森是一个古怪的海洛因依赖者,他痴迷于自己的花园。这部喜剧描写了伊森在生命最后阶段如何争取完成一些还来得及的小理想。



该资源信息参数
  1. Video
  2. ID                                       : 1
  3. Format                                   : AVC
  4. Format/Info                              : Advanced Video Codec
  5. Format profile                           : High@L4.1
  6. Format settings                          : CABAC / 8 Ref Frames
  7. Format settings, CABAC                   : Yes
  8. Format settings, Reference frames        : 8 frames
  9. Codec ID                                 : V_MPEG4/ISO/AVC
  10. Duration                                 : 1 h 47 min
  11. Bit rate                                 : 5 556 kb/s
  12. Width                                    : 1 280 pixels
  13. Height                                   : 720 pixels
  14. Display aspect ratio                     : 16:9
  15. Frame rate mode                          : Constant
  16. Frame rate                               : 23.976 (24000/1001/45378) FPS
  17. Color space                              : YUV
  18. Chroma subsampling                       : 4:2:0
  19. Bit depth                                : 8 bits
  20. Scan type                                : Progressive
  21. Bits/(Pixel*Frame)                       : 0.251
  22. Stream size                              : 4.16 GiB (89%)
  23. Writing library                          : x264 core 160 r3007 235ce61
  24. Encoding settings                        : cabac=1 / ref=8 / deblock=1:-3:-3 / analyse=0x3:0x133 / me=umh / subme=9 / psy=1 / psy_rd=1.00:0.00 / mixed_ref=1 / me_range=32 / chroma_me=1 / trellis=2 / 8x8dct=1 / cqm=0 / deadzone=21,11 / fast_pskip=0 / chroma_qp_offset=-2 / threads=12 / lookahead_threads=2 / sliced_threads=0 / nr=0 / decimate=0 / interlaced=0 / bluray_compat=0 / constrained_intra=0 / bframes=9 / b_pyramid=2 / b_adapt=2 / b_bias=0 / direct=3 / weightb=1 / open_gop=0 / weightp=2 / keyint=250 / keyint_min=23 / scenecut=40 / intra_refresh=0 / rc=crf / mbtree=0 / crf=20.6 / qcomp=0.60 / qpmin=0 / qpmax=69 / qpstep=4 / ip_ratio=1.40 / pb_ratio=1.30 / aq=3:0.88
  25. Default                                  : Yes
  26. Forced                                   : No
  27. Color range                              : Limited
  28. Matrix coefficients                      : BT.709
  29. Audio
  30. ID                                       : 2
  31. Format                                   : AC-3
  32. Format/Info                              : Audio Coding 3
  33. Commercial name                          : Dolby Digital
  34. Codec ID                                 : A_AC3
  35. Duration                                 : 1 h 47 min
  36. Bit rate mode                            : Constant
  37. Bit rate                                 : 640 kb/s
  38. Channel(s)                               : 6 channels
  39. Channel layout                           : L R C LFE Ls Rs
  40. Sampling rate                            : 48.0 kHz
  41. Frame rate                               : 31.250 FPS (1536 SPF)
  42. Bit depth                                : 16 bits
  43. Compression mode                         : Lossy
  44. Stream size                              : 491 MiB (10%)
  45. Title                                    : English
  46. Language                                 : English
  47. Service kind                             : Complete Main
  48. Default                                  : No
  49. Forced                                   : No
  50. Text
  51. ID                                       : 3
  52. Format                                   : PGS
  53. Muxing mode                              : zlib
  54. Codec ID                                 : S_HDMV/PGS
  55. Codec ID/Info                            : Picture based subtitle format used on BDs/HD-DVDs
  56. Duration                                 : 1 h 46 min
  57. Bit rate                                 : 39.5 kb/s
  58. Count of elements                        : 2222
  59. Stream size                              : 30.2 MiB (1%)
  60. Title                                    : Dutch
  61. Language                                 : Dutch
  62. Default                                  : No
  63. Forced                                   : No
  64. Menu
  65. 00:00:00.000                             : en:Chapter 01
  66. 00:10:58.157                             : en:Chapter 02
  67. 00:17:00.019                             : en:Chapter 03
  68. 00:28:49.561                             : en:Chapter 04
  69. 00:34:53.341                             : en:Chapter 05
  70. 00:45:53.584                             : en:Chapter 06
  71. 00:53:42.219                             : en:Chapter 07
  72. 01:01:42.824                             : en:Chapter 08
  73. 01:11:22.570                             : en:Chapter 09
  74. 01:21:34.890                             : en:Chapter 10
  75. 01:30:12.490                             : en:Chapter 11
  76. 01:42:32.772                             : en:Chapter 12
复制代码








蓝光高清网提示您 点击下方附件名称 马上开始下载

美国樱草 American.Cowslip.2009.720p.BluRay.x264-LATENCY 4.65GB
American.Cowslip.2009.720p.BluRay.x264-LATENCY.torrent 
         (47.18 KB    阅读权限: 0)
加入蓝光高清网VIP会员  无限制下载本站所有资源---点这里

资源下载、资源播放、字幕使用、无法下载等常见问题---点这里
回复

使用道具 举报

您需要登录后才可以回帖 登录 | 立即注册

本版积分规则

关注0

粉丝1

帖子89666

发布主题
最新电影 论坛
本期活动
联系我们
点击这里联系客服

服务时间:
周一到周日8:00-23:30

  • 打开微信扫一扫
    关注公众号

  • 手机QQ扫一扫
    添加客服

手机版蓝光高清网 |网站地图

Powered by Discuz! X3.4 Licensed  © 2001-2013 Comsenz Inc.