[其它] 美国哈兰县 Harlan.County.U.S.A.1976.1080p.HMAX.WEBRip.DD2.0.x264-QOQ 6.30GB

[复制链接]
蓝鸟 发表于 2020-8-4 06:47:25 | 显示全部楼层 |阅读模式 打印 上一主题 下一主题



译  名 美国哈兰县
片  名 Harlan County, U.S.A.
年  代 1976
产  地 美国
类  别 纪录片
语  言 英语
上映日期 1976-10-18
IMDb评分  8.3/10 from 4731 users
IMDb链接  https://www.imdb.com/title/tt0074605
豆瓣评分 8.7/10 from 843 users
豆瓣链接 https://movie.douban.com/subject/1294724/
片  长 103 分钟
导  演 芭芭拉·卡颇 Barbara Kopple
主  演 John Corcoran
       约翰·奥莱利 John O"Leary
       Tom Williams
       Ken Yablonski


标  签 纪录片 | 美国 | 美国电影 | 1970s | BarbaraKopple | Documentary | 1976 | 类别纪实

简  介  

  简介:该片以真实电影的手法描绘哈连郡矿场的罢工事件,是劳工议题电影中的经典之作。导演曾跟随梅索兄弟多年,协助录音并学习拍片,后开始从事独立拍片的工作,至今已三十年。

获奖情况  

  第49届奥斯卡金像奖(1977)
  最佳纪录长片 芭芭拉·卡颇



该资源信息参数
  1. Video
  2. ID                                       : 1
  3. Format                                   : AVC
  4. Format/Info                              : Advanced Video Codec
  5. Format profile                           : High@L4
  6. Format settings                          : CABAC / 4 Ref Frames
  7. Format settings, CABAC                   : Yes
  8. Format settings, Reference frames        : 4 frames
  9. Codec ID                                 : V_MPEG4/ISO/AVC
  10. Duration                                 : 1 h 44 min
  11. Bit rate mode                            : Variable
  12. Bit rate                                 : 8 229 kb/s
  13. Maximum bit rate                         : 12.4 Mb/s
  14. Width                                    : 1 920 pixels
  15. Height                                   : 1 080 pixels
  16. Display aspect ratio                     : 16:9
  17. Frame rate mode                          : Constant
  18. Frame rate                               : 23.976 (24000/1001/45378) FPS
  19. Color space                              : YUV
  20. Chroma subsampling                       : 4:2:0
  21. Bit depth                                : 8 bits
  22. Scan type                                : Progressive
  23. Bits/(Pixel*Frame)                       : 0.166
  24. Stream size                              : 6.02 GiB (96%)
  25. Default                                  : Yes
  26. Forced                                   : No

  27. Audio
  28. ID                                       : 2
  29. Format                                   : AC-3
  30. Format/Info                              : Audio Coding 3
  31. Commercial name                          : Dolby Digital
  32. Codec ID                                 : A_AC3
  33. Duration                                 : 1 h 44 min
  34. Bit rate mode                            : Constant
  35. Bit rate                                 : 384 kb/s
  36. Channel(s)                               : 2 channels
  37. Channel layout                           : L R
  38. Sampling rate                            : 48.0 kHz
  39. Frame rate                               : 31.250 FPS (1536 SPF)
  40. Bit depth                                : 16 bits
  41. Compression mode                         : Lossy
  42. Stream size                              : 288 MiB (4%)
  43. Language                                 : English
  44. Service kind                             : Complete Main
  45. Default                                  : Yes
  46. Forced                                   : No

  47. Text
  48. ID                                       : 3
  49. Format                                   : UTF-8
  50. Codec ID                                 : S_TEXT/UTF8
  51. Codec ID/Info                            : UTF-8 Plain Text
  52. Duration                                 : 1 h 42 min
  53. Bit rate                                 : 99 b/s
  54. Count of elements                        : 2255
  55. Stream size                              : 74.6 KiB (0%)
  56. Title                                    : English CC
  57. Language                                 : English
  58. Default                                  : No
  59. Forced                                   : No
复制代码











蓝光高清网提示您 点击下方附件名称 马上开始下载

美国哈兰县 Harlan.County.U.S.A.1976.1080p.HMAX.WEBRip.DD2.0.x264-QOQ 6.30GB
Harlan.County.U.S.A.1976.1080p.HMAX.WEBRip.DD2.0.x264-QOQ.torrent 
         (32.06 KB    阅读权限: 0)
加入蓝光高清网VIP会员  无限制下载本站所有资源---点这里

资源下载、资源播放、字幕使用、无法下载等常见问题---点这里
回复

使用道具 举报

您需要登录后才可以回帖 登录 | 立即注册

本版积分规则

关注0

粉丝1

帖子89666

发布主题
最新电影 论坛
本期活动
联系我们
点击这里联系客服

服务时间:
周一到周日8:00-23:30

  • 打开微信扫一扫
    关注公众号

  • 手机QQ扫一扫
    添加客服

手机版蓝光高清网 |网站地图

Powered by Discuz! X3.4 Licensed  © 2001-2013 Comsenz Inc.