开通会员
全站资源畅享下载
4k原盘抢先下载
免高清币下载
会员用户组特权
开通会员
上传
收藏
首页
开启左侧

森林之子毛克利4k Mowgli.The Jungle.2018.2160p.WEBRip.x265.10bit.SDR.DDP5.1.Atmos-4k电影下载—14.55 GB

[复制链接]
蓝鸟 发表于 2020-8-18 15:46:14 | 显示全部楼层 |阅读模式 打印 上一主题 下一主题

森林之子毛克利(2018年上映)

主演本尼迪克特·康伯巴奇 / 克里斯蒂安·贝尔 / 凯特·布兰切特 / 安迪·瑟金斯 / 娜奥米·哈里斯
导演安迪·瑟金斯
类型剧情 冒险 
地区美国 
片长104分钟
画质4K HDR 原盘
音轨Dolby TrueHD 5.1 Dolby Atmos 
评分豆瓣6.5分
电影【森林之子毛克利】原盘信息
 

加入蓝光高清网,轻松下载最新4k资源

您需要 登录 才可以下载或查看,没有帐号?立即注册

x
本帖最后由 蓝鸟 于 2020-12-16 15:39 编辑 4 r! i2 C+ ~& {4 t' a" ]. s/ j

( m2 d& Z& Z9 G% ^8 F/ [2 p简       介
* w" n- w+ F. T: Y! P1 f! w7 i" F: D- P! H9 p* x, F) t+ Z% r, {
  故事讲述了人类男孩毛克利在一片印度丛林中被狼群抚养长大。在棕熊巴鲁(Baloo)和黑豹巴希拉(Bagheera)的监护下,毛克利学习残酷的森林守则,最终被动物们接受并成为其中一员。尽管如此,他仍需要面对可怕的老虎谢利·可汗(Shere Khan),毛克利的人类身世更是潜伏在森林中的巨大威胁。$ n: I: h- u& d
+ ?/ r5 O; A, n
影片参数
5 D) j, ?2 [( b1 j- i: R! g! b
毛克利 / 毛克利:魔森丛现(港) / 丛林之书:起源 / 森林王子 / 莫格利 / Jungle Book: Origins /
( Q* `! q! Y* u7 q$ ]! g/ GThe Jungle Book/森林之子毛克利4k
% L* Z" a' j# Q* EMowgli.Legend.of.the.Jungle.2018.2160p.WEBRip.x265.10bit.SDR.DDP5.1.Atmos-4k电影
2 {2 R: `' ~  q& ^$ A信息1 o; A' o( {( ]7 J
01. Video
0 F% @/ w3 d% |" i02. ID : 15 Z1 _( O( f+ M: R2 F1 m7 |  j3 w
03. Format : HEVC3 P  g; N& k4 V: y- p7 D
04. Format/Info : High Efficiency Video Coding
- s$ {; c7 @7 v# c# U. m05. Format profile : Main 10@L5.1@High
+ R0 g) a" j) e; }3 v& s, V: H06. Codec ID : V_MPEGH/ISO/HEVC4 B. b  H9 }' {5 s8 e9 \
07. Duration : 1 h 44 min
- e* G$ `2 [9 v# r  F9 X/ |08. Bit rate : 19.4 Mb/s3 u+ r/ r! i$ }8 v! [
09. Width : 3 840 pixels0 o; Y2 |$ m# k! h) o& T
10. Height : 1 604 pixels8 U4 H4 [$ d  {8 X; l
11. Display aspect ratio : 2.40:1
  a2 ?- A0 B) b3 k6 E  N12. Frame rate mode : Constant/ \# Z" m0 J: @; U. N
13. Frame rate : 23.976 (24000/1001) FPS
, k. t: U! S* ^2 r9 W14. Color space : YUV
7 p7 G2 m4 [  h. m) G15. Chroma subsampling : 4:2:0 (Type 2)
2 M" @; J/ Y! H3 L( I# S8 f16. Bit depth : 10 bits2 L) V* h5 p' o
17. Bits/(Pixel*Frame) : 0.131% B; v' v6 n' ~" M, f# {
18. Stream size : 14.2 GiB (98%)' W1 B& c8 o4 S. i
19. Writing library : x265 2.9+9-f74003e88622:[Windows][GCC 6.3.0][64 bit] 10bit
* S: j8 S% R4 t( d$ x  w. T; ^20. Encoding settings : cpuid=1176575 / frame-threads=4 / numa-pools=28 / wpp / no-pmode / no-pme / no-psnr / no-ssim
$ I! i" l: P: b' ?# x& Q/ log-level=2 / input-csp=1 / input-res=3840x1604 / interlace=0 / total-frames=120 / level-idc=51 / high-tier=1 /
; K  l% w# l5 a" ?uhd-bd=0 / ref=4 / no-allow-non-conformance / no-repeat-headers / annexb / no-aud / no-hrd / info / hash=0 / notemporal-layers / open-gop / min-keyint=23 / keyint=250 / gop-lookahead=0 / bframes=11 / b-adapt=2 / b-pyramid /7 k4 o6 K0 v, i7 d
bframe-bias=0 / rc-lookahead=25 / lookahead-slices=4 / scenecut=40 / radl=0 / no-intra-refresh / ctu=64 / min-cusize=8 / rect / no-amp / max-tu-size=32 / tu-inter-depth=1 / tu-intra-depth=1 / limit-tu=0 / rdoq-level=2 /* B6 Z) W- D# u$ Q/ N; L1 y0 [
dynamic-rd=0.00 / no-ssim-rd / signhide / no-tskip / nr-intra=0 / nr-inter=0 / no-constrained-intra / strongintra-smoothing / max-merge=3 / limit-refs=3 / limit-modes / me=2 / subme=6 / merange=57 / temporal-mvp / weightp3 f2 n0 d" Y) F/ O% a
/ no-weightb / no-analyze-src-pics / deblock=-3:-3 / no-sao / no-sao-non-deblock / rd=4 / no-early-skip / rskip /
( J: s/ s- x( {' J, [) g+ Uno-fast-intra / no-tskip-fast / no-cu-lossless / no-b-intra / no-splitrd-skip / rdpenalty=0 / psy-rd=4.00 / psyrdoq=10.00 / no-rd-refine / no-lossless / cbqpoffs=0 / crqpoffs=0 / rc=crf / crf=17.0 / qcomp=0.60 / qpstep=1 /
* f5 z; W. ^6 Tstats-write=0 / stats-read=0 / vbv-maxrate=160000 / vbv-bufsize=160000 / vbv-init=0.9 / crf-max=0.0 / crf-min=0.0: o( k  L, m- i8 R6 g9 R* W+ c
/ ipratio=1.25 / pbratio=1.20 / aq-mode=3 / aq-strength=0.75 / cutree / zone-count=0 / no-strict-cbr / qg-size=32) c4 k. P4 e0 q
/ no-rc-grain / qpmax=69 / qpmin=0 / no-const-vbv / sar=1 / overscan=0 / videoformat=5 / range=0 / colorprim=2 /" ?$ G# A# o$ E% N( i6 u
transfer=2 / colormatrix=1 / chromaloc=1 / chromaloc-top=2 / chromaloc-bottom=2 / display-window=0 / max-cll=0,0( p: n/ H, K0 t' g. P. P% p
/ min-luma=0 / max-luma=1023 / log2-max-poc-lsb=8 / vui-timing-info / vui-hrd-info / slices=1 / no-opt-qp-pps /
; z& F2 I5 @/ _no-opt-ref-list-length-pps / no-multi-pass-opt-rps / scenecut-bias=0.05 / no-opt-cu-delta-qp / no-aq-motion / nohdr / no-hdr-opt / no-dhdr10-opt / no-idr-recovery-sei / analysis-reuse-level=5 / scale-factor=0 / refine-intra=0
$ J+ W* h1 }) }" C# f2 k9 N. V/ refine-inter=0 / refine-mv=0 / no-limit-sao / ctu-info=0 / no-lowpass-dct / refine-mv-type=0 / copy-pic=1 /4 k9 e! L& m" |( E. c
max-ausize-factor=1.0 / no-dynamic-refine / no-single-sei% c% T  N0 p0 M; [
21. Default : Yes
' p+ G* C3 A/ I( ?: o0 o: i22. Forced : No
; c3 M+ ]6 A7 v6 J$ |0 i  i23. Color range : Limited( W1 w' P1 r4 ]+ ]+ B3 K
24. Matrix coefficients : BT.709
3 |7 L4 Q* s! J% _( R: v25." G* [4 A9 o+ L8 h5 e
26. Audio9 |) Q: p- p8 I* w$ l
27. ID : 2, m; w$ k- x) Y: s" J" F! E
28. Format : E-AC-3 JOC
. h1 L, \3 i  @# y% P- `# a1 Q29. Format/Info : Enhanced AC-3 with Joint Object Coding
. N! A( Z* Q5 Z0 U30. Commercial name : Dolby Digital Plus with Dolby Atmos, Z' A. i( Y% R7 N! r
31. Codec ID : A_EAC3" e8 p  f/ P( }4 z7 _5 r
32. Duration : 1 h 44 min
# u, D7 R5 O5 ^* _% ]33. Bit rate mode : Constant
' t9 k& W, _  C34. Bit rate : 448 kb/s6 u+ {% @* L; Q2 \4 M  w2 T4 F% P
35. Channel(s) : 6 channels/ r8 C- K" S3 H2 t5 \. W  t: t
36. Channel layout : L R C LFE Ls Rs
4 h0 Q) s: Z6 v9 D5 l& w, N37. Sampling rate : 48.0 kHz
' A+ z; Q- J1 {' k- R: T# _7 b38. Frame rate : 31.250 FPS (1536 SPF)
& M& x- f! k& f# Z- e39. Compression mode : Lossy* `( _5 }& |8 n6 @7 _
40. Stream size : 336 MiB (2%)" S& M% K2 N* q
41. Title : English
7 G% K- {  C" C6 j) D( V; R42. Language : English) Z1 A( M' M  D
43. Service kind : Complete Main
: ~9 c, ~  q4 u& O. d44. Default : No
# \) ?4 j! g: w0 n+ |/ A' K( E45. Forced : No
6 n8 r1 `8 ^- k+ Z46. Complexity index : 16
* f$ i+ R+ P' r) c; N1 z; f47. Number of dynamic objects : 15
# x* ~6 S/ Y9 K4 Z48. Bed channel count : 1 channel$ f* g1 O  G! C$ H- R
49. Bed channel configuration : LFE
: ?) \( e3 |. `! S' e
) {! g6 z$ M4 J" O
蓝光高清网提示您  点击下方附件名称  马上开始下载+ Z" w* @7 B: l
# c3 ]9 H" l8 M9 o
毛克利 / 毛克利:魔森丛现(港) / 丛林之书:起源 / 森林王子 / 莫格利 / Jungle Book: Origins /The Jungle Book/森林之子毛克利4k
/ f( `, k% s2 u1 ^8 p$ B+ }. r
" z- q) G- ?1 C6 L$ ^9 G+ zMowgli.Legend.of.the.Jungle.2018.2160p.WEBRip.x265.10bit.SDR.DDP5.1.Atmos-4k电影下载
4 b6 d, W. K; P2 r; o# D8 o2 O/ Y% G! @: C; W8 `! ^
森林之子毛克利4k Mowgli.Legend.of.the.Jungle.2018.2160p.WEBRip.x265.10bit.SDR.DDP5.1.Atmos【14.55GB】! @3 z$ c- V4 m! O4 K
森林之子毛克利4k Mowgli.Legend.of.the.Jungle.2018.2160p.WEBRip.x265.10bit.SDR.DD.torrent (文件大小:73.29 KB)
: {$ w7 w% I6 \# v& `
森林之子毛克利中文字幕下载
$ p; K) L4 K6 D+ a7 D, _ [森林之子毛克利]Mowgli.Legend.of.the.Jungle.2018.1080p.NF.WEB-DL.DDP5.1.x264-NTG.rar (文件大小:33.03 KB)
加入蓝光高清网VIP会员  无限制下载本站所有资源---点这里

资源下载、资源播放、字幕使用、无法下载等常见问题---点这里
回复

使用道具 举报

 

精彩评论7

正序浏览
gdlmxia 发表于 2020-8-18 21:44:22 | 显示全部楼层
 
太好啦&萬分感謝版主的無私發佈分享%
回复

使用道具 举报

 
LAJISE 发表于 2020-8-19 14:41:59 | 显示全部楼层
 

: Y; l0 Q$ }1 c4 G; j祝蓝光高清网越办越红火。
回复

使用道具 举报

 
wrangler7 发表于 2020-8-28 08:22:32 | 显示全部楼层
 
0 M4 a1 |5 t: A3 y
感谢蓝光高清网提供的优质资源,希望网站越办越好。
回复

使用道具 举报

 
wrangler7 发表于 2020-8-29 07:56:12 | 显示全部楼层
 
0 X$ S# @" y7 }  z* o" f" l' N, H* d
身体健康,天天开心,祝蓝光高清网越办越红火
回复

使用道具 举报

 
梁生 发表于 2020-8-30 14:42:17 | 显示全部楼层
 
! Z; N$ w2 `7 G
支持蓝光高清网!
回复

使用道具 举报

 
2318677228 发表于 2020-9-6 10:17:39 来自手机 | 显示全部楼层
 
谢谢分享
回复

使用道具 举报

 
刘家大少 发表于 2021-1-20 20:59:21 | 显示全部楼层
 
非常感谢蓝光高清网分享的各种知识和资源,祝蓝光高清网越来越好
回复

使用道具 举报

 
您需要登录后才可以回帖 登录 | 立即注册

本版积分规则

0关注

2粉丝

93698帖子

  • 版块推荐
  • 百宝箱

电影推荐

更多+

热门电影

更多+

下载APP 签到更便捷

官方微信

手机APP

蓝光高清网

专注4k电影、4k视频、VR视频、高清电影、蓝光原盘资源

本站内容部分由用户自主分享和转载自互联网,转载目的在于传递更多信息,并不代表本网赞同其观点和对其真实性负责。

如有侵权、违反国家法律政策行为,请联系我们,我们会第一时间及时清除和处理!

举报反馈邮箱:lanniao@1080pro.net

Copyright   ©2019-2020  蓝光高清网    |网站地图