花木兰
4K HDR 
4.7
  • 年代: 2020年
  • 国家/地区: 美国
  • 类型: 动作 剧情 冒险 古装 
  • 导演: 妮琪·卡罗
  • 音轨: Dolby TrueHD 5.1 Dolby Atmos 
  • 时长: 114分钟
  • 主演:刘亦菲 / 甄子丹 / 巩俐 / 李连杰 / 李截
特别声明:本站提供的所有高清电影作品均是在网上搜集,任何涉及商业盈利目的均不得使用,否则产生的一切后果将由您自己承担!本站将不对本站的任何内容负任何法律责任!该下载内容仅做宽带测试使用,请在下载后24小时内删除。请购买正版! 本站所有资源均由网上收集而来,版权归原影音公司所有,如果侵犯了你的权益,请通知我们,我们会及时删除侵权内容.

花木兰4k花木兰2020.2160p.DSNP.WEBRip.x265.10bit.HDR.DDP5.1.Atmos-4k电影下载—11.14 GB

[复制链接]
MYadminwl*# 发表于 2020-9-8 11:01:25 | 显示全部楼层 |阅读模式 打印 上一主题 下一主题
简       介
+ H' i# d2 d- R* y
! ^2 V: _9 h( z/ l- f$ N; D  在古代中国,一位年轻的女子为了救她的父亲假扮成男装代父从军。在穿越中国广袤土地的壮丽征程中,她从紧张的训练和战争中存活下来,发现自己内心的战士,并且最终从外族侵略者手中救回了皇帝和她的祖国。。9 p/ X/ T0 c/ D. `5 l$ o
  刘亦菲饰演花木兰,Yoson An饰演花木兰恋人,李连杰饰演皇帝,巩俐饰演反派女巫,越南华裔女Xana Tang饰演花木兰的姐妹,甄子丹饰演花木兰的导师tung。

4 d" l; a9 m6 x$ `  d0 J9 H: n7 A4 ~' |# X- }
! ]- }" U/ H2 |& B* c) k. M7 x7 V
影片参数" l! v6 _' K* v+ z/ L
4k电影信息4 k" i7 |$ @6 ]  e! Q+ h9 @8 G  R% w
Video/ r) R8 E. ]" [2 D) }, w" e
ID : 14 ~) ~+ U/ u+ _
Format : HEVC4 A3 S. x9 l$ g
Format/Info : High Efficiency Video Coding+ N7 P/ @+ q2 i, ]
Format profile : Main 10@L5.1@High5 j2 l! @* S" b& P
HDR format : SMPTE ST 2086, HDR10 compatible6 o3 J; B+ S$ D8 I* J- z
Codec ID : V_MPEGH/ISO/HEVC# ^, A4 T9 G! H. Q) X  Y
Duration : 1 h 54 min0 f9 ]/ B$ G2 a. v. U9 v( M
Bit rate : 13.1 Mb/s) _. a" ]7 l$ `! U4 p9 Z
Width : 3 840 pixels
" y% Z$ F0 r1 h% k8 b# m9 l5 yHeight : 1 608 pixels( a. n, a# ~1 ~
Display aspect ratio : 2.40:1
) m) C) Z0 S& x9 t' o: \3 u! ~Frame rate mode : Constant
; C% x2 B$ I4 {Frame rate : 23.976 (24000/1001) FPS
+ [! w) N7 R. L8 aColor space : YUV
. l  i+ N4 ^$ X7 Y5 h. P3 H" E$ cChroma subsampling : 4:2:0 (Type 2)! f( x9 S+ l. R- u
Bit depth : 10 bits
& o& ^7 }! K* E" \Bits/(Pixel*Frame) : 0.088
; @) S. t& b$ x; k) o% m2 |8 o- cStream size : 10.5 GiB (94%)
; s! r* I1 z% ?+ c: U. X2 U. XWriting library : x265 3.4+6-g73f96ff39:[Windows][GCC 11.0.0][64 bit] 10bit! Q: t. }% X3 S4 t. y4 Z2 |  O2 d& s
Encoding settings : cpuid=1111039 / frame-threads=4 / numa-pools=28 / wpp / no-pmode / no-pme / no-psnr / no-ssim / log-level=2 / input-csp=1 / input-res=3840x1608 / interlace=0 / total-frames=821 / level-idc=51 / high-tier=1 / uhd-bd=0 / ref=4 / no-allow-non-conformance / repeat-headers / annexb / aud / hrd / info / hash=0 / no-temporal-layers / no-open-gop / min-keyint=23 / keyint=250 / gop-lookahead=0 / bframes=4 / b-adapt=2 / b-pyramid / bframe-bias=0 / rc-lookahead=25 / lookahead-slices=4 / scenecut=40 / hist-scenecut=0 / radl=0 / no-splice / no-intra-refresh / ctu=64 / min-cu-size=8 / rect / no-amp / max-tu-size=32 / tu-inter-depth=1 / tu-intra-depth=1 / limit-tu=0 / rdoq-level=2 / dynamic-rd=0.00 / no-ssim-rd / signhide / no-tskip / nr-intra=0 / nr-inter=0 / no-constrained-intra / no-strong-intra-smoothing / max-merge=3 / limit-refs=3 / limit-modes / me=3 / subme=3 / merange=57 / temporal-mvp / no-frame-dup / no-hme / weightp / no-weightb / no-analyze-src-pics / deblock=-2:-2 / no-sao / no-sao-non-deblock / rd=4 / selective-sao=0 / no-early-skip / rskip / no-fast-intra / no-tskip-fast / no-cu-lossless / no-b-intra / no-splitrd-skip / rdpenalty=0 / psy-rd=2.00 / psy-rdoq=1.00 / no-rd-refine / no-lossless / cbqpoffs=0 / crqpoffs=0 / rc=crf / crf=14.0 / qcomp=0.60 / qpstep=4 / stats-write=0 / stats-read=0 / vbv-maxrate=160000 / vbv-bufsize=160000 / vbv-init=0.9 / crf-max=0.0 / crf-min=0.0 / ipratio=1.40 / pbratio=1.30 / aq-mode=2 / aq-strength=1.00 / cutree / zone-count=0 / no-strict-cbr / qg-size=32 / no-rc-grain / qpmax=69 / qpmin=0 / no-const-vbv / sar=0 / overscan=0 / videoformat=5 / range=0 / colorprim=9 / transfer=16 / colormatrix=9 / chromaloc=1 / chromaloc-top=2 / chromaloc-bottom=2 / display-window=0 / master-display=G(13250,34500)B(7500,3000)R(34000,16000)WP(15635,16450)L(10000000,0) / cll=0,0 / min-luma=0 / max-luma=1023 / log2-max-poc-lsb=8 / vui-timing-info / vui-hrd-info / slices=1 / no-opt-qp-pps / no-opt-ref-list-length-pps / no-multi-pass-opt-rps / scenecut-bias=0.05 / hist-threshold=0.01 / no-opt-cu-delta-qp / no-aq-motion / hdr10 / hdr10-opt / no-dhdr10-opt / no-idr-recovery-sei / analysis-reuse-level=0 / analysis-save-reuse-level=0 / analysis-load-reuse-level=0 / scale-factor=0 / refine-intra=0 / refine-inter=0 / refine-mv=1 / refine-ctu-distortion=0 / no-limit-sao / ctu-info=0 / no-lowpass-dct / refine-analysis-type=0 / copy-pic=1 / max-ausize-factor=1.0 / no-dynamic-refine / no-single-sei / no-hevc-aq / no-svt / no-field / qp-adaptation-range=1.00 / no-scenecut-aware-qpconformance-window-offsets / right=0 / bottom=0 / decoder-max-rate=0
0 }5 ]) Q3 v, I! Y& e# m* GDefault : Yes
, }: _' o6 ]5 z" L) HForced : No- y9 \. m0 _6 x6 u
Color range : Limited
) J; D2 f! B5 ?Color primaries : BT.2020
& q; I* Y  c! H7 f% q9 ]Transfer characteristics : PQ+ [) t- B) ^5 U6 Z! V/ A2 Y5 X
Matrix coefficients : BT.2020 non-constant9 E, P4 x( x6 p9 G2 S, l: g
Mastering display color primaries : Display P30 I4 S* U! c- c) a5 k& i' l
Mastering display luminance : min: 0.0000 cd/m2, max: 1000 cd/m2
3 a$ G1 F. F  P% T3 l3 e3 d1 N5 Z
& j. x( }. ?/ k' U3 a; a  k
- \% @& X  K' d% R, S; E# V
Audio  k1 L2 S# x% Q- O
ID : 2
, m# T) L3 A& L! @; ^' aFormat : E-AC-3 JOC
% ?4 N- Y4 j# \5 @* T- cFormat/Info : Enhanced AC-3 with Joint Object Coding
1 B/ B+ {2 P9 ?- F! b7 iCommercial name : Dolby Digital Plus with Dolby Atmos; b$ `' q! Q' U
Codec ID : A_EAC3
! h, l2 P) |3 t4 ~* KDuration : 1 h 54 min) U. g8 r" E1 w; l- G8 W$ B( z" O
Bit rate mode : Constant  X2 ^7 A0 z; B5 P9 h3 B
Bit rate : 768 kb/s, C3 ^: F+ s4 H6 F2 m: S3 k
Channel(s) : 6 channels
7 r3 R# n3 I) n7 s  ^Channel layout : L R C LFE Ls Rs
" e; D6 ?! F% o# N, }Sampling rate : 48.0 kHz
8 z% s! b' a( f( xFrame rate : 31.250 FPS (1536 SPF): m  |* V9 G# h, M, Q' w& N) u; M
Compression mode : Lossy
+ D3 O0 w& `7 aStream size : 632 MiB (6%)
; X) Z! f/ d3 b$ i& f) _Language : English+ I: F# f0 C- d1 b* e$ Z9 K, e
Service kind : Complete Main7 T1 C% M, O+ W% ?  ?9 e8 p: ?
Default : Yes4 Q5 m) d0 Q6 o2 {
Forced : No0 [1 B$ \9 p5 E8 e; s
Complexity index : 16
$ F9 I/ g8 Y/ D( ~- M8 z+ k8 T$ `Number of dynamic objects : 15
* k0 L6 K( R4 B( f; H; a9 x2 _Bed channel count : 1 channel
4 J+ K& a. \; n+ k5 U$ |: H- \! qBed channel configuration : LFE
, ^+ W1 i9 [) f2 a4 L* B8 f. ~# I. y  v$ G/ r. Z: l
蓝光高清网提示您  点击下方附件名称  马上开始下载0 O8 C0 t9 _  P# i' b/ N! ]

; J. @! A  c" c8 K/ a木兰传说 / 花木兰真人版 / 迪士尼真人版花木兰/花木兰4k Mulan.2020.2160p.DSNP.WEBRip.x265.10bit.HDR.DDP5.1.Atmos-4k电影下载
1 n5 o; Z" N0 \  \  c2 ^$ \0 R3 `; i) ^3 W

. r6 ]/ G% j$ k! L* M花木兰4k Mulan.2020.2160p.DSNP.WEBRip.x265.10bit.HDR.DDP5.1.Atmos【11.14 GB】
  e' e$ @. X6 y# f; y4 O/ ?. U7 L; s
/ ~8 l8 h9 @6 z7 b, w8 ^* }& I 花木兰4k Mulan.2020.2160p.DSNP.WEBRip.x265.10bit.HDR.DDP5.1.Atmos-SEMANTiCS.torrent 
         (56.25 KB    阅读权限: 20)
回复

使用道具 举报

精彩评论8

gdlmxia 发表于 2020-9-8 11:48:59 | 显示全部楼层
太好啦&萬分感謝版主的無私發佈分享%
回复

使用道具 举报

※梦如烟※ 发表于 2020-9-8 18:45:43 | 显示全部楼层
非常感谢蓝光高清网分享的各种知识和资源,祝蓝光高清网越来越好
回复

使用道具 举报

百会 发表于 2020-9-8 19:56:17 | 显示全部楼层
非常感谢蓝光高清网分享的各种知识和资源,祝蓝光高清网越来越好
回复

使用道具 举报

wrangler7 发表于 2020-9-9 08:38:30 | 显示全部楼层
非常感谢蓝光高清网分享的各种知识和资源,祝蓝光高清网越来越好
回复

使用道具 举报

pfq1974 发表于 2020-9-9 10:56:19 | 显示全部楼层
非常感谢蓝光高清网分享的各种知识和资源,祝蓝光高清网越来越好
回复

使用道具 举报

独行大侠 发表于 2020-9-10 07:19:52 | 显示全部楼层
谢谢楼主分享
回复

使用道具 举报

as2002 发表于 2020-9-10 17:24:04 | 显示全部楼层
  J9 w3 F. D; P* H4 o$ a8 b- w
非常感谢蓝光高清网给大家的享乐4k,祝蓝光高清网越办越好!
回复

使用道具 举报

wrangler7 发表于 2020-9-11 08:24:54 | 显示全部楼层
; J4 i1 e6 ^+ k
感谢蓝光高清网提供的优质资源,希望网站越办越好。
回复

使用道具 举报

您需要登录后才可以回帖 登录 | 立即注册

本版积分规则

关注0

粉丝1

帖子392

发布主题
最新电影 论坛
本期活动
联系我们
点击这里联系客服

服务时间:
周一到周日8:00-23:30

  • 打开微信扫一扫
    关注公众号

  • 手机QQ扫一扫
    添加客服

手机版蓝光高清网 |网站地图

Powered by Discuz! X3.4 Licensed  © 2001-2013 Comsenz Inc.