[剧情] 柳媚花娇/洛城故事 The.Young.Girls.of.Rochefort.1967.FRENCH.CRITERION.1080p.BluRay.x264.DTS-iKiW 16.43GB

[复制链接]
蓝鸟 发表于 2020-9-13 10:08:42 | 显示全部楼层 |阅读模式 打印 上一主题 下一主题

柳媚花娇/洛城故事 The.Young.Girls.of.Rochefort.1967.FRENCH.CRITERION.1080p.BluRay.x264.DTS-iKiW 16.4 ...

柳媚花娇/洛城故事 The.Young.Girls.of.Rochefort.1967.FRENCH.CRITERION.1080p.BluRay.x264.DTS-iKiW 16.4 ...



译  名 柳媚花娇 / The Young Girls of Rochefort / 洛城故事 / 罗塞福的姑娘 / 罗港姑娘
片  名 Les Demoiselles de Rochefort
年  代 1967
产  地 法国
类  别 剧情 / 喜剧 / 歌舞
语  言 法语 / 英语
上映日期 1967-03-08
IMDb评分  7.7/10 from 8075 users
IMDb链接  https://www.imdb.com/title/tt0062873
豆瓣评分 8.0/10 from 2401 users
豆瓣链接 https://movie.douban.com/subject/1301648/
片  长 120 分钟
导  演 雅克·德米 Jacques Demy
编  剧 雅克·德米 Jacques Demy / Julian More
主  演 凯瑟琳·德纳芙 Catherine Deneuve
       乔治·查金思 George Chakiris
       弗朗索瓦·朵列 Fran?oise Dorléac
       雅克·贝汉 Jacques Perrin
       米歇尔·皮科利 Michel Piccoli
       雅克·里伯罗勒 Jacques Riberolles
       Grover Dale
       亨利·克里梅约 Henri Crémieux
       吉恩·凯利 Gene Kelly
       达尼埃尔·达里约 Danielle Darrieux
       阿涅斯·瓦尔达 Agnès Varda
       Geneviève Thénier
       利利亚纳·德·凯尔马德克 Liliane de Kermadec
       Jacques Revaux
       Christiane Legrand


标  签 法国 | 歌舞 | 法国电影 | 雅克·德米 | 1960s | 1967 | JacquesDemy | CatherineDeneuve

简  介  

  迪芬(凯瑟琳·德纳芙 Catherine Deneuve 饰)和苏兰(弗朗索瓦·朵列 Fran?oise Dorléac 饰)是相依为命的两姐妹,她们一个红发,一个金发,一个擅长曼妙的舞蹈,一个拥有天籁的歌喉。夏日嘉年华将近,在逐渐热烈的气氛中,迪芬和苏兰也在嘉年华中有着各自的任务。画商吉列姆(Jacques Riberolles 饰)钦慕于迪芬的美貌,无奈迪芬早已经芳心暗许给了替她画像的年轻画家麦桑思(雅克·贝汉 Jacques Perrin 饰),与此同时,苏兰遇见了名为米勒(吉恩·凯利 Gene Kelly 饰)的年轻人,两人心心相惜两情相悦。让苏兰没有想到的是,眼前的米勒正是她苦苦寻找无果的作曲家,她一直希望米勒能够读一读她所撰写的一段协奏曲。

获奖情况  

  第41届奥斯卡金像奖(1969)
  歌舞片最佳配乐(提名) 雅克·德米 / 米歇尔·勒格朗



该资源信息参数
  • Video
  • ID                                       : 1
  • Format                                   : AVC
  • Format/Info                              : Advanced Video Codec
  • Format profile                           : High@L4.1
  • Format settings                          : CABAC / 5 Ref Frames
  • Format settings, CABAC                   : Yes
  • Format settings, Reference frames        : 5 frames
  • Codec ID                                 : V_MPEG4/ISO/AVC
  • Duration                                 : 2 h 7 min
  • Bit rate                                 : 17.0 Mb/s
  • Width                                    : 1 920 pixels
  • Height                                   : 800 pixels
  • Display aspect ratio                     : 2.40:1
  • Frame rate mode                          : Constant
  • Frame rate                               : 23.976 (23976/1000/45378) FPS
  • Original frame rate                      : 23.976 (24000/1001/45378) FPS
  • Color space                              : YUV
  • Chroma subsampling                       : 4:2:0
  • Bit depth                                : 8 bits
  • Scan type                                : Progressive
  • Bits/(Pixel*Frame)                       : 0.462
  • Stream size                              : 15.1 GiB (92%)
  • Writing library                          : x264 core 124 r2197+666+28 3970b70 tMod+MixAQ [8-bit@4:2:0 X86]
  • Encoding settings                        : cabac=1 / ref=5 / deblock=1:-3:-3 / analyse=0x3:0x133 / me=umh / subme=11 / psy=1 / fade_compensate=0.00 / psy_rd=1.05:0.10 / mixed_ref=1 / me_range=64 / chroma_me=1 / trellis=2 / 8x8dct=1 / cqm=0 / deadzone=21,11 / fast_pskip=0 / chroma_qp_offset=-3 / threads=12 / sliced_threads=0 / nr=0 / decimate=1 / interlaced=0 / bluray_compat=0 / constrained_intra=0 / fgo=0 / bframes=16 / b_pyramid=2 / b_adapt=2 / b_bias=0 / direct=3 / weightb=1 / open_gop=0 / weightp=2 / keyint=250 / keyint_min=23 / scenecut=40 / intra_refresh=0 / rc_lookahead=60 / rc=2pass / mbtree=1 / bitrate=17000 / ratetol=1.0 / qcomp=0.70 / qpmin=0 / qpmax=69 / qpstep=4 / cplxblur=20.0 / qblur=0.5 / ip_ratio=1.40 / aq=1 / aq-strength=0.50 / aq-sensitivity=10.00 / aq-ifactor=1.00 / aq-pfactor=1.00 / aq-bfactor=1.00 / aq2=0
  • Language                                 : French
  • Default                                  : Yes
  • Forced                                   : No
  • Audio
  • ID                                       : 2
  • Format                                   : DTS
  • Format/Info                              : Digital Theater Systems
  • Codec ID                                 : A_DTS
  • Duration                                 : 2 h 7 min
  • Bit rate mode                            : Constant
  • Bit rate                                 : 1 509 kb/s
  • Channel(s)                               : 6 channels
  • Channel layout                           : C L R Ls Rs LFE
  • Sampling rate                            : 48.0 kHz
  • Frame rate                               : 93.750 FPS (512 SPF)
  • Bit depth                                : 24 bits
  • Compression mode                         : Lossy
  • Stream size                              : 1.34 GiB (8%)
  • Language                                 : French
  • Default                                  : Yes
  • Forced                                   : No
  • Text
  • ID                                       : 3
  • Format                                   : UTF-8
  • Codec ID                                 : S_TEXT/UTF8
  • Codec ID/Info                            : UTF-8 Plain Text
  • Duration                                 : 1 h 47 min
  • Bit rate                                 : 51 b/s
  • Count of elements                        : 1160
  • Stream size                              : 40.5 KiB (0%)
  • Language                                 : English
  • Default                                  : Yes
  • Forced                                   : No
  • Menu
  • 00:00:00.000                             : en:00:00:00.000
  • 00:14:14.270                             : en:00:14:14.270
  • 00:22:32.851                             : en:00:22:32.851
  • 00:28:15.569                             : en:00:28:15.569
  • 00:32:19.521                             : en:00:32:19.521
  • 00:36:36.486                             : en:00:36:36.486
  • 00:43:47.959                             : en:00:43:47.959
  • 00:48:44.380                             : en:00:48:44.380
  • 00:53:31.291                             : en:00:53:31.291
  • 01:03:07.158                             : en:01:03:07.158
  • 01:06:46.836                             : en:01:06:46.836
  • 01:14:31.050                             : en:01:14:31.050
  • 01:19:40.943                             : en:01:19:40.943
  • 01:28:39.314                             : en:01:28:39.314
  • 01:32:52.776                             : en:01:32:52.776
  • 01:41:19.949                             : en:01:41:19.949
  • 01:47:51.548                             : en:01:47:51.548
  • 01:52:43.507                             : en:01:52:43.507
  • 02:03:31.738                             : en:02:03:31.738

复制代码


柳媚花娇/洛城故事 The.Young.Girls.of.Rochefort.1967.FRENCH.CRITERION.1080p.BluRay.x264.DTS-iKiW 16.4 ...

柳媚花娇/洛城故事 The.Young.Girls.of.Rochefort.1967.FRENCH.CRITERION.1080p.BluRay.x264.DTS-iKiW 16.4 ...



柳媚花娇/洛城故事 The.Young.Girls.of.Rochefort.1967.FRENCH.CRITERION.1080p.BluRay.x264.DTS-iKiW 16.4 ...

柳媚花娇/洛城故事 The.Young.Girls.of.Rochefort.1967.FRENCH.CRITERION.1080p.BluRay.x264.DTS-iKiW 16.4 ...



柳媚花娇/洛城故事 The.Young.Girls.of.Rochefort.1967.FRENCH.CRITERION.1080p.BluRay.x264.DTS-iKiW 16.4 ...

柳媚花娇/洛城故事 The.Young.Girls.of.Rochefort.1967.FRENCH.CRITERION.1080p.BluRay.x264.DTS-iKiW 16.4 ...



蓝光高清网提示您  点击下方附件名称  马上开始下载

柳媚花娇/洛城故事 The.Young.Girls.of.Rochefort.1967.FRENCH.CRITERION.1080p.BluRay.x264.DTS-iKiW 16.43GB
The.Young.Girls.of.Rochefort.1967.FRENCH.CRITERION.1080p.BluRay.x264.DTS-iKiW.torrent 
         (82.72 KB    阅读权限: 0)
加入蓝光高清网VIP会员  无限制下载本站所有资源---点这里

资源下载、资源播放、字幕使用、无法下载等常见问题---点这里
回复

使用道具 举报

您需要登录后才可以回帖 登录 | 立即注册

本版积分规则

关注0

粉丝1

帖子88155

发布主题
最新电影 论坛
本期活动
联系我们
点击这里联系客服

服务时间:
周一到周日8:00-23:30

  • 打开微信扫一扫
    关注公众号

  • 手机QQ扫一扫
    添加客服

手机版蓝光高清网 |网站地图

Powered by Discuz! X3.4 Licensed  © 2001-2013 Comsenz Inc.