[剧情] 肉欲的42街 Fleshpot.On.42nd.Street.1973.1080p.BluRay.x264-HANDJOB 7.42GB

[复制链接]
蓝鸟 发表于 2020-9-13 10:10:00 | 显示全部楼层 |阅读模式 打印 上一主题 下一主题

肉欲的42街 Fleshpot.On.42nd.Street.1973.1080p.BluRay.x264-HANDJOB 7.42GB

肉欲的42街 Fleshpot.On.42nd.Street.1973.1080p.BluRay.x264-HANDJOB 7.42GB



译  名 肉欲的42街 / Girls of 42nd Street
片  名 Fleshpot on 42nd Street
年  代 1973
产  地 美国
类  别 剧情
语  言 英语
上映日期 1973
IMDb评分  6.0/10 from 197 users
IMDb链接  https://www.imdb.com/title/tt0062980
豆瓣评分 0/10 from 0 users
豆瓣链接 https://movie.douban.com/subject/3585702/
片  长 80 分钟
导  演 Andy Milligan

标  签 美国电影 | 毛片 | VS

简  介  

  暂无相关剧情介绍



该资源信息参数
  • Video
  • ID                                       : 1
  • Format                                   : AVC
  • Format/Info                              : Advanced Video Codec
  • Format profile                           : High@L4.1
  • Format settings                          : CABAC / 5 Ref Frames
  • Format settings, CABAC                   : Yes
  • Format settings, Reference frames        : 5 frames
  • Codec ID                                 : V_MPEG4/ISO/AVC
  • Duration                                 : 1 h 27 min
  • Bit rate                                 : 11.8 Mb/s
  • Width                                    : 1 440 pixels
  • Height                                   : 1 080 pixels
  • Display aspect ratio                     : 4:3
  • Frame rate mode                          : Constant
  • Frame rate                               : 23.976 (24000/1001/45378) FPS
  • Color space                              : YUV
  • Chroma subsampling                       : 4:2:0
  • Bit depth                                : 8 bits
  • Scan type                                : Progressive
  • Bits/(Pixel*Frame)                       : 0.316
  • Stream size                              : 7.17 GiB (97%)
  • Writing library                          : x264 core 157 r2935 545de2f
  • Encoding settings                        : cabac=1 / ref=5 / deblock=1:-3:-3 / analyse=0x3:0x133 / me=umh / subme=10 / psy=1 / psy_rd=1.00:0.00 / mixed_ref=1 / me_range=32 / chroma_me=1 / trellis=2 / 8x8dct=1 / cqm=0 / deadzone=21,11 / fast_pskip=0 / chroma_qp_offset=-2 / threads=12 / lookahead_threads=3 / sliced_threads=0 / nr=0 / decimate=0 / interlaced=0 / bluray_compat=0 / constrained_intra=0 / bframes=16 / b_pyramid=2 / b_adapt=2 / b_bias=0 / direct=3 / weightb=1 / open_gop=0 / weightp=2 / keyint=240 / keyint_min=24 / scenecut=40 / intra_refresh=0 / rc_lookahead=60 / rc=crf / mbtree=0 / crf=21.0 / qcomp=0.60 / qpmin=0 / qpmax=69 / qpstep=4 / vbv_maxrate=62500 / vbv_bufsize=78125 / crf_max=0.0 / nal_hrd=none / filler=0 / ip_ratio=1.40 / pb_ratio=1.30 / aq=2:1.00
  • Default                                  : Yes
  • Forced                                   : No
  • Color range                              : Limited
  • Color primaries                          : BT.709
  • Transfer characteristics                 : BT.709
  • Matrix coefficients                      : BT.709
  • Audio #1
  • ID                                       : 2
  • Format                                   : FLAC
  • Format/Info                              : Free Lossless Audio Codec
  • Codec ID                                 : A_FLAC
  • Duration                                 : 1 h 27 min
  • Bit rate mode                            : Variable
  • Bit rate                                 : 306 kb/s
  • Channel(s)                               : 1 channel
  • Channel layout                           : C
  • Sampling rate                            : 48.0 kHz
  • Frame rate                               : 10.417 FPS (4608 SPF)
  • Bit depth                                : 16 bits
  • Detected bit depth                       : 24 bits
  • Compression mode                         : Lossless
  • Delay relative to video                  : -21 ms
  • Stream size                              : 191 MiB (3%)
  • Writing library                          : Lavf58.51.101
  • Language                                 : English
  • Default                                  : Yes
  • Forced                                   : No
  • Audio #2
  • ID                                       : 3
  • Format                                   : AAC LC
  • Format/Info                              : Advanced Audio Codec Low Complexity
  • Codec ID                                 : A_AAC-2
  • Duration                                 : 1 h 27 min
  • Bit rate                                 : 96.0 kb/s
  • Channel(s)                               : 1 channel
  • Channel layout                           : C
  • Sampling rate                            : 48.0 kHz
  • Frame rate                               : 46.875 FPS (1024 SPF)
  • Compression mode                         : Lossy
  • Delay relative to video                  : -21 ms
  • Stream size                              : 59.9 MiB (1%)
  • Title                                    : Commentary with Samm Deighan, Heather Drain, and Kat Ellinger
  • Language                                 : English
  • Default                                  : No
  • Forced                                   : No
  • Text
  • ID                                       : 4
  • Format                                   : UTF-8
  • Codec ID                                 : S_TEXT/UTF8
  • Codec ID/Info                            : UTF-8 Plain Text
  • Duration                                 : 1 h 26 min
  • Bit rate                                 : 73 b/s
  • Count of elements                        : 1594
  • Stream size                              : 46.2 KiB (0%)
  • Language                                 : English
  • Default                                  : No
  • Forced                                   : No
  • Menu
  • 00:00:00.000                             : :Chapter 1
  • 00:22:40.860                             : :Chapter 2
  • 00:42:44.062                             : :Chapter 3
  • 01:03:55.415                             : :Chapter 4

复制代码


肉欲的42街 Fleshpot.On.42nd.Street.1973.1080p.BluRay.x264-HANDJOB 7.42GB

肉欲的42街 Fleshpot.On.42nd.Street.1973.1080p.BluRay.x264-HANDJOB 7.42GB



肉欲的42街 Fleshpot.On.42nd.Street.1973.1080p.BluRay.x264-HANDJOB 7.42GB

肉欲的42街 Fleshpot.On.42nd.Street.1973.1080p.BluRay.x264-HANDJOB 7.42GB



肉欲的42街 Fleshpot.On.42nd.Street.1973.1080p.BluRay.x264-HANDJOB 7.42GB

肉欲的42街 Fleshpot.On.42nd.Street.1973.1080p.BluRay.x264-HANDJOB 7.42GB



蓝光高清网提示您  点击下方附件名称  马上开始下载

肉欲的42街 Fleshpot.On.42nd.Street.1973.1080p.BluRay.x264-HANDJOB 7.42GB
Fleshpot.On.42nd.Street.1973.1080p.BluRay.x264-HANDJOB.torrent 
         (37.64 KB    阅读权限: 0)
加入蓝光高清网VIP会员  无限制下载本站所有资源---点这里

资源下载、资源播放、字幕使用、无法下载等常见问题---点这里
回复

使用道具 举报

精彩评论1

老地方的雨 发表于 2020-9-14 10:54:32 | 显示全部楼层

祝蓝光高清网越办越红火。
回复

使用道具 举报

您需要登录后才可以回帖 登录 | 立即注册

本版积分规则

关注0

粉丝1

帖子88155

发布主题
最新电影 论坛
本期活动
联系我们
点击这里联系客服

服务时间:
周一到周日8:00-23:30

  • 打开微信扫一扫
    关注公众号

  • 手机QQ扫一扫
    添加客服

手机版蓝光高清网 |网站地图

Powered by Discuz! X3.4 Licensed  © 2001-2013 Comsenz Inc.