[剧情] 星星/东线情报战 The.Star.2002.RUSSIAN.1080p.BluRay.x264-HANDJOB 8.37GB

[复制链接]
蓝鸟 发表于 2020-9-13 10:11:19 | 显示全部楼层 |阅读模式 打印 上一主题 下一主题

星星/东线情报战 The.Star.2002.RUSSIAN.1080p.BluRay.x264-HANDJOB 8.37GB

星星/东线情报战 The.Star.2002.RUSSIAN.1080p.BluRay.x264-HANDJOB 8.37GB



译  名 星星 / Zvezda / 东线情报战 / 东部战线1944 / 星星敢死队
片  名 Звезда
年  代 2002
产  地 俄罗斯
类  别 剧情 / 动作 / 历史 / 战争 / 冒险
语  言 俄语 / 德语
上映日期 2002-07-11
IMDb评分  7.1/10 from 2276 users
IMDb链接  https://www.imdb.com/title/tt0326450
豆瓣评分 7.8/10 from 1838 users
豆瓣链接 https://movie.douban.com/subject/1308241/
片  长 97 分钟
导  演 尼古拉·列别捷夫 Nikolay Lebedev
编  剧 叶夫根尼·格里戈尔耶夫 Yevgeni Grigoryev / 尼古拉·列别捷夫 Nikolay Lebedev / Emmanuil G. Kazakevich / 亚历山大·博罗德扬斯基 Aleksandr Borodyanskiy
主  演 伊戈尔·别特连科 Igor Petrenko
       阿尔焦姆·谢马金 Artyom Semakin
       阿列克谢·帕宁 Aleksey Panin
       阿列克谢·克拉夫琴科 Aleksey Kravchenko
       Anatoli Gushchin
       阿马杜·马马达科夫 Amadu Mamadakov
       Aleksandr Efimov
       亚历山大·奥斯特犹科夫 Aleksandr Ustyugov


标  签 俄罗斯 | 二战 | 战争 | 俄罗斯电影 | 苏联 | 侦察兵 | 历史 | 星星

简  介  

  1944年,二战已接近尾声,在东部的苏德战场上,红军为了摧毁法西斯的最后抵抗,派出了以特拉夫金中尉(Igor Petrenko 饰)为首的七人侦察队,他们将要深入敌后,去摸清敌人的兵力部署。这次凶险的任务已经导致多名战士牺牲,但勇敢的侦察队员们毅然出发了,临行前,特拉夫金与通信兵卡佳(Yekaterina Vulichenko 饰)约定,用“星星”和“大地”作为彼此在电波中联络的暗号。侦察队顺利的潜入敌后,并陆续传回有价值的情报,意识到侦察队威胁的德军方面如临大敌,派出重兵封锁交通,导致侦察队蒙受巨大损失。特拉夫金面对失去战友跟电台的局面,却决定继续前行,完成自己最后的任务……本片获2002年翁弗勒尔俄罗斯电影节大奖等多项褒奖。



该资源信息参数
  • Video
  • ID                                       : 1
  • Format                                   : AVC
  • Format/Info                              : Advanced Video Codec
  • Format profile                           : High@L4.1
  • Format settings                          : CABAC / 4 Ref Frames
  • Format settings, CABAC                   : Yes
  • Format settings, Reference frames        : 4 frames
  • Codec ID                                 : V_MPEG4/ISO/AVC
  • Duration                                 : 1 h 37 min
  • Bit rate                                 : 11.7 Mb/s
  • Width                                    : 1 804 pixels
  • Height                                   : 1 080 pixels
  • Display aspect ratio                     : 5:3
  • Frame rate mode                          : Constant
  • Frame rate                               : 23.976 (24000/1001/45378) FPS
  • Color space                              : YUV
  • Chroma subsampling                       : 4:2:0
  • Bit depth                                : 8 bits
  • Scan type                                : Progressive
  • Bits/(Pixel*Frame)                       : 0.250
  • Stream size                              : 7.94 GiB (95%)
  • Writing library                          : x264 core 157 r2935 545de2f
  • Encoding settings                        : cabac=1 / ref=4 / deblock=1:-3:-3 / analyse=0x3:0x133 / me=umh / subme=10 / psy=1 / psy_rd=1.00:0.00 / mixed_ref=1 / me_range=32 / chroma_me=1 / trellis=2 / 8x8dct=1 / cqm=0 / deadzone=21,11 / fast_pskip=0 / chroma_qp_offset=-2 / threads=12 / lookahead_threads=3 / sliced_threads=0 / nr=0 / decimate=0 / interlaced=0 / bluray_compat=0 / constrained_intra=0 / bframes=16 / b_pyramid=2 / b_adapt=2 / b_bias=0 / direct=3 / weightb=1 / open_gop=0 / weightp=2 / keyint=240 / keyint_min=24 / scenecut=40 / intra_refresh=0 / rc_lookahead=60 / rc=crf / mbtree=0 / crf=17.8 / qcomp=0.60 / qpmin=0 / qpmax=69 / qpstep=4 / vbv_maxrate=62500 / vbv_bufsize=78125 / crf_max=0.0 / nal_hrd=none / filler=0 / ip_ratio=1.40 / pb_ratio=1.30 / aq=2:1.00
  • Default                                  : Yes
  • Forced                                   : No
  • Color range                              : Limited
  • Color primaries                          : BT.709
  • Transfer characteristics                 : BT.709
  • Matrix coefficients                      : BT.709
  • Audio
  • ID                                       : 2
  • Format                                   : AC-3
  • Format/Info                              : Audio Coding 3
  • Commercial name                          : Dolby Digital
  • Codec ID                                 : A_AC3
  • Duration                                 : 1 h 37 min
  • Bit rate mode                            : Constant
  • Bit rate                                 : 640 kb/s
  • Channel(s)                               : 6 channels
  • Channel layout                           : L R C LFE Ls Rs
  • Sampling rate                            : 48.0 kHz
  • Frame rate                               : 31.250 FPS (1536 SPF)
  • Compression mode                         : Lossy
  • Stream size                              : 445 MiB (5%)
  • Language                                 : Russian
  • Service kind                             : Complete Main
  • Default                                  : Yes
  • Forced                                   : No
  • Text
  • ID                                       : 3
  • Format                                   : UTF-8
  • Codec ID                                 : S_TEXT/UTF8
  • Codec ID/Info                            : UTF-8 Plain Text
  • Duration                                 : 1 h 33 min
  • Bit rate                                 : 21 b/s
  • Count of elements                        : 524
  • Stream size                              : 14.8 KiB (0%)
  • Language                                 : English
  • Default                                  : Yes
  • Forced                                   : No
  • Menu
  • 00:00:00.000                             : :Kapitel 01
  • 00:07:28.531                             : :Kapitel 02
  • 00:15:20.002                             : :Kapitel 03
  • 00:21:09.518                             : :Kapitel 04
  • 00:32:02.963                             : :Kapitel 05
  • 00:42:12.530                             : :Kapitel 06
  • 00:47:12.830                             : :Kapitel 07
  • 00:54:58.378                             : :Kapitel 08
  • 01:03:53.872                             : :Kapitel 09
  • 01:12:15.373                             : :Kapitel 10
  • 01:17:40.656                             : :Kapitel 11
  • 01:22:08.924                             : :Kapitel 12

复制代码


星星/东线情报战 The.Star.2002.RUSSIAN.1080p.BluRay.x264-HANDJOB 8.37GB

星星/东线情报战 The.Star.2002.RUSSIAN.1080p.BluRay.x264-HANDJOB 8.37GB



星星/东线情报战 The.Star.2002.RUSSIAN.1080p.BluRay.x264-HANDJOB 8.37GB

星星/东线情报战 The.Star.2002.RUSSIAN.1080p.BluRay.x264-HANDJOB 8.37GB



星星/东线情报战 The.Star.2002.RUSSIAN.1080p.BluRay.x264-HANDJOB 8.37GB

星星/东线情报战 The.Star.2002.RUSSIAN.1080p.BluRay.x264-HANDJOB 8.37GB



蓝光高清网提示您  点击下方附件名称  马上开始下载

星星/东线情报战 The.Star.2002.RUSSIAN.1080p.BluRay.x264-HANDJOB 8.37GB
The.Star.2002.RUSSIAN.1080p.BluRay.x264-HANDJOB.torrent 
         (42.39 KB    阅读权限: 0)
加入蓝光高清网VIP会员  无限制下载本站所有资源---点这里

资源下载、资源播放、字幕使用、无法下载等常见问题---点这里
回复

使用道具 举报

您需要登录后才可以回帖 登录 | 立即注册

本版积分规则

关注0

粉丝1

帖子88155

发布主题
最新电影 论坛
本期活动
联系我们
点击这里联系客服

服务时间:
周一到周日8:00-23:30

  • 打开微信扫一扫
    关注公众号

  • 手机QQ扫一扫
    添加客服

手机版蓝光高清网 |网站地图

Powered by Discuz! X3.4 Licensed  © 2001-2013 Comsenz Inc.