[剧情] 猫与爷爷/爷爷与喵 The.Island.Of.Cats.2019.JAPANESE.1080p.BluRay.x264.DTS-iKiW 9.75GB

[复制链接]
蓝鸟 发表于 2020-9-13 10:12:37 | 显示全部楼层 |阅读模式 打印 上一主题 下一主题

猫与爷爷/爷爷与喵 The.Island.Of.Cats.2019.JAPANESE.1080p.BluRay.x264.DTS-iKiW 9.75GB

猫与爷爷/爷爷与喵 The.Island.Of.Cats.2019.JAPANESE.1080p.BluRay.x264.DTS-iKiW 9.75GB



译  名 猫与爷爷 / Neko to Jiichan / THE ISLAND OF CATS / 爷爷与喵(台) / 猫与老爷爷
片  名 ねことじいちゃん
年  代 2019
产  地 日本
类  别 剧情
语  言 日语
上映日期 2019-02-02(日本)
IMDb评分  6.6/10 from 94 users
IMDb链接  https://www.imdb.com/title/tt8845988
豆瓣评分 7.6/10 from 3327 users
豆瓣链接 https://movie.douban.com/subject/30150641/
片  长 104分钟
导  演 岩合光昭
编  剧 坪田文
主  演 立川志の輔
       柴崎幸 Kou Shibasaki
       小林薰 Kaoru Kobayashi
       田中裕子 Y?ko Tanaka
       柄本佑 Tasuku Emoto
       银粉蝶 Guin Poon Chaw
       山中崇 Takashi Yamanaka
       叶山奖之 Shono Hayama


标  签 日本 | 温情 | 猫 | 猫咪 | 日本电影 | 猫片 | 动物 | 2019

简  介  

  影片发生在一座风景优美的偏僻小岛,岛上的居民大多是老年人。而为老人们生活增光添彩的则是遍布在小岛上的猫咪们。影片主人公大吉爷爷在老伴去世后,开始了和猫咪小玉相依为命的老年生活。岛上的居民们性格各异,同时各自也有着各自的故事。始终钟情于初恋的渔夫大叔,一对三十多年一直争吵不断的邻居老奶奶。直到一位神秘的美丽女子来到岛上,并在岛上经营起了一家咖啡店。新潮洋气的咖啡馆显然与质朴的小岛有些格格不入,但也正是这个咖啡馆的到来,原本死气沉沉的小岛焕发了新的生机。大吉爷爷的生活变得丰富多彩和充满意义。小岛上既有温情故事,也有生离死别。但最终大家其乐融融的相聚在一起,充满着活力与人情味。



该资源信息参数
  • Video
  • ID                                       : 1
  • Format                                   : AVC
  • Format/Info                              : Advanced Video Codec
  • Format profile                           : High@L4.1
  • Format settings                          : CABAC / 5 Ref Frames
  • Format settings, CABAC                   : Yes
  • Format settings, Reference frames        : 5 frames
  • Codec ID                                 : V_MPEG4/ISO/AVC
  • Duration                                 : 1 h 42 min
  • Bit rate                                 : 12.1 Mb/s
  • Width                                    : 1 920 pixels
  • Height                                   : 804 pixels
  • Display aspect ratio                     : 2.40:1
  • Frame rate mode                          : Constant
  • Frame rate                               : 23.976 (24000/1001/45378) FPS
  • Color space                              : YUV
  • Chroma subsampling                       : 4:2:0
  • Bit depth                                : 8 bits
  • Scan type                                : Progressive
  • Bits/(Pixel*Frame)                       : 0.326
  • Stream size                              : 8.67 GiB (89%)
  • Writing library                          : x264 core 129 r2245+704+36 8e61944 tMod+MixAQ [8-bit@4:2:0 X86_64]
  • Encoding settings                        : cabac=1 / ref=5 / deblock=1:-3:-3 / analyse=0x3:0x133 / me=umh / subme=11 / psy=1 / fade_compensate=0.00 / psy_rd=1.05:0.10 / mixed_ref=1 / me_range=64 / chroma_me=1 / trellis=2 / 8x8dct=1 / cqm=0 / deadzone=21,11 / fast_pskip=0 / chroma_qp_offset=-3 / threads=18 / lookahead_threads=3 / sliced_threads=0 / nr=0 / decimate=0 / interlaced=0 / bluray_compat=0 / constrained_intra=0 / fgo=0 / bframes=10 / b_pyramid=2 / b_adapt=2 / b_bias=0 / direct=3 / weightb=1 / open_gop=0 / weightp=2 / keyint=250 / keyint_min=23 / scenecut=40 / intra_refresh=0 / rc=2pass / mbtree=0 / bitrate=12084 / ratetol=1.0 / qcomp=0.70 / qpmin=0 / qpmax=69 / qpstep=4 / cplxblur=20.0 / qblur=0.5 / ip_ratio=1.40 / pb_ratio=1.30 / aq=1 / aq-strength=0.90 / aq-sensitivity=10.00 / aq-ifactor=1.00 / aq-pfactor=1.00 / aq-bfactor=1.00 / aq2=0
  • Language                                 : Japanese
  • Default                                  : Yes
  • Forced                                   : No
  • Audio
  • ID                                       : 2
  • Format                                   : DTS
  • Format/Info                              : Digital Theater Systems
  • Codec ID                                 : A_DTS
  • Duration                                 : 1 h 42 min
  • Bit rate mode                            : Constant
  • Bit rate                                 : 1 509 kb/s
  • Channel(s)                               : 6 channels
  • Channel layout                           : C L R Ls Rs LFE
  • Sampling rate                            : 48.0 kHz
  • Frame rate                               : 93.750 FPS (512 SPF)
  • Bit depth                                : 24 bits
  • Compression mode                         : Lossy
  • Stream size                              : 1.08 GiB (11%)
  • Language                                 : Japanese
  • Default                                  : Yes
  • Forced                                   : No
  • Text #1
  • ID                                       : 3
  • Format                                   : UTF-8
  • Codec ID                                 : S_TEXT/UTF8
  • Codec ID/Info                            : UTF-8 Plain Text
  • Duration                                 : 1 h 40 min
  • Bit rate                                 : 28 b/s
  • Count of elements                        : 978
  • Stream size                              : 21.1 KiB (0%)
  • Language                                 : English
  • Default                                  : No
  • Forced                                   : No
  • Text #2
  • ID                                       : 4
  • Format                                   : ASS
  • Codec ID                                 : S_TEXT/ASS
  • Codec ID/Info                            : Advanced Sub Station Alpha
  • Duration                                 : 1 h 40 min
  • Bit rate                                 : 57 b/s
  • Count of elements                        : 1008
  • Compression mode                         : Lossless
  • Stream size                              : 42.1 KiB (0%)
  • Title                                    : Simplified
  • Language                                 : Chinese
  • Default                                  : Yes
  • Forced                                   : No
  • Text #3
  • ID                                       : 5
  • Format                                   : ASS
  • Codec ID                                 : S_TEXT/ASS
  • Codec ID/Info                            : Advanced Sub Station Alpha
  • Duration                                 : 1 h 40 min
  • Bit rate                                 : 57 b/s
  • Count of elements                        : 1008
  • Compression mode                         : Lossless
  • Stream size                              : 42.1 KiB (0%)
  • Title                                    : Traditional
  • Language                                 : Chinese
  • Default                                  : No
  • Forced                                   : No
  • Menu
  • 00:00:00.000                             : en:第 01 章
  • 00:13:18.797                             : en:第 02 章
  • 00:23:56.601                             : en:第 03 章
  • 00:33:51.529                             : en:第 04 章
  • 00:51:18.867                             : en:第 05 章
  • 01:09:22.408                             : en:第 06 章
  • 01:27:01.841                             : en:第 07 章
  • 01:36:56.852                             : en:第 08 章
  • 01:42:42.156                             : en:第 09 章

复制代码


猫与爷爷/爷爷与喵 The.Island.Of.Cats.2019.JAPANESE.1080p.BluRay.x264.DTS-iKiW 9.75GB

猫与爷爷/爷爷与喵 The.Island.Of.Cats.2019.JAPANESE.1080p.BluRay.x264.DTS-iKiW 9.75GB



猫与爷爷/爷爷与喵 The.Island.Of.Cats.2019.JAPANESE.1080p.BluRay.x264.DTS-iKiW 9.75GB

猫与爷爷/爷爷与喵 The.Island.Of.Cats.2019.JAPANESE.1080p.BluRay.x264.DTS-iKiW 9.75GB



猫与爷爷/爷爷与喵 The.Island.Of.Cats.2019.JAPANESE.1080p.BluRay.x264.DTS-iKiW 9.75GB

猫与爷爷/爷爷与喵 The.Island.Of.Cats.2019.JAPANESE.1080p.BluRay.x264.DTS-iKiW 9.75GB



蓝光高清网提示您  点击下方附件名称  马上开始下载

猫与爷爷/爷爷与喵 The.Island.Of.Cats.2019.JAPANESE.1080p.BluRay.x264.DTS-iKiW 9.75GB
The.Island.Of.Cats.2019.JAPANESE.1080p.BluRay.x264.DTS-iKiW.torrent 
         (49.33 KB    阅读权限: 0)
加入蓝光高清网VIP会员  无限制下载本站所有资源---点这里

资源下载、资源播放、字幕使用、无法下载等常见问题---点这里
回复

使用道具 举报

精彩评论1

2318677228 发表于 2020-9-14 10:05:14 来自手机 | 显示全部楼层
谢谢分享
回复

使用道具 举报

您需要登录后才可以回帖 登录 | 立即注册

本版积分规则

关注0

粉丝1

帖子88155

发布主题
最新电影 论坛
本期活动
联系我们
点击这里联系客服

服务时间:
周一到周日8:00-23:30

  • 打开微信扫一扫
    关注公众号

  • 手机QQ扫一扫
    添加客服

手机版蓝光高清网 |网站地图

Powered by Discuz! X3.4 Licensed  © 2001-2013 Comsenz Inc.