[爱情] 午夜0时的吻 Kiss.Me.At.The.Stroke.Of.Midnight.2019.JAPANESE.1080p.BluRay.x264.DTS-iKiW 8.50GB

[复制链接]
蓝鸟 发表于 2020-9-13 10:13:57 | 显示全部楼层 |阅读模式 打印 上一主题 下一主题

午夜0时的吻 Kiss.Me.At.The.Stroke.Of.Midnight.2019.JAPANESE.1080p.BluRay.x264.DTS-iKiW 8.50GB

午夜0时的吻 Kiss.Me.At.The.Stroke.Of.Midnight.2019.JAPANESE.1080p.BluRay.x264.DTS-iKiW 8.50GB



译  名 午夜0时的吻 / Kiss Me at the Stroke of Midnight
片  名 午前0時、キスしに来てよ
年  代 2019
产  地 日本
类  别 爱情
语  言 日语
上映日期 2019-12-06(日本)
IMDb评分  5.8/10 from 18 users
IMDb链接  https://www.imdb.com/title/tt10206400
豆瓣评分 5.3/10 from 5872 users
豆瓣链接 https://movie.douban.com/subject/30488584/
片  长 115分钟
导  演 新城毅彦 Takehiko Shinjo
编  剧 大北遥 Haruka Okita / Rin Mikimoto
主  演 片寄凉太 Katayose Ryota
       桥本环奈 Kanna Hashimoto
       真荣田乡敦 Goudon Maeda
       八木亚里纱 Arisa Yagi
       冈崎纱绘 Sae Okazaki
       铃木胜大 Katsuhiko Suzuki
       酒井若菜 Wakana Sakai
       远藤宪一 Ken"ichi End?
       Takuma Usa
       Rihito Noda
       Alissa Yagi


标  签 桥本环奈 | 片寄凉太 | 少女心 | 片寄涼太 | 爱情 | 日本电影 | 日本 | 漫画改编

简  介  

  该片讲述了普通女高中生日奈奈认识了来学校拍摄电影的男明星绫濑枫,两人发展出一段“灰姑娘”式的爱情的故事。



该资源信息参数
  • Video
  • ID                                       : 1
  • Format                                   : AVC
  • Format/Info                              : Advanced Video Codec
  • Format profile                           : High@L4.1
  • Format settings                          : CABAC / 4 Ref Frames
  • Format settings, CABAC                   : Yes
  • Format settings, Reference frames        : 4 frames
  • Codec ID                                 : V_MPEG4/ISO/AVC
  • Duration                                 : 1 h 52 min
  • Bit rate                                 : 10.0 Mb/s
  • Width                                    : 1 920 pixels
  • Height                                   : 1 038 pixels
  • Display aspect ratio                     : 1.85:1
  • Frame rate mode                          : Constant
  • Frame rate                               : 23.976 (24000/1001/45378) FPS
  • Color space                              : YUV
  • Chroma subsampling                       : 4:2:0
  • Bit depth                                : 8 bits
  • Scan type                                : Progressive
  • Bits/(Pixel*Frame)                       : 0.210
  • Stream size                              : 7.89 GiB (93%)
  • Writing library                          : x264 core 129 r2245+704+36 8e61944 tMod+MixAQ [8-bit@4:2:0 X86_64]
  • Encoding settings                        : cabac=1 / ref=4 / deblock=1:-3:-3 / analyse=0x3:0x133 / me=umh / subme=11 / psy=1 / fade_compensate=0.00 / psy_rd=1.00:0.10 / mixed_ref=1 / me_range=64 / chroma_me=1 / trellis=2 / 8x8dct=1 / cqm=0 / deadzone=21,11 / fast_pskip=0 / chroma_qp_offset=-3 / threads=18 / lookahead_threads=3 / sliced_threads=0 / nr=0 / decimate=0 / interlaced=0 / bluray_compat=0 / constrained_intra=0 / fgo=0 / bframes=10 / b_pyramid=2 / b_adapt=2 / b_bias=0 / direct=3 / weightb=1 / open_gop=0 / weightp=2 / keyint=250 / keyint_min=23 / scenecut=40 / intra_refresh=0 / rc=2pass / mbtree=0 / bitrate=10022 / ratetol=1.0 / qcomp=0.70 / qpmin=0 / qpmax=69 / qpstep=4 / cplxblur=20.0 / qblur=0.5 / ip_ratio=1.40 / pb_ratio=1.30 / aq=1 / aq-strength=0.90 / aq-sensitivity=10.00 / aq-ifactor=1.00 / aq-pfactor=1.00 / aq-bfactor=1.00 / aq2=0
  • Language                                 : Japanese
  • Default                                  : Yes
  • Forced                                   : No
  • Audio
  • ID                                       : 2
  • Format                                   : DTS
  • Format/Info                              : Digital Theater Systems
  • Codec ID                                 : A_DTS
  • Duration                                 : 1 h 52 min
  • Bit rate mode                            : Constant
  • Bit rate                                 : 768 kb/s
  • Channel(s)                               : 6 channels
  • Channel layout                           : C L R Ls Rs LFE
  • Sampling rate                            : 48.0 kHz
  • Frame rate                               : 93.750 FPS (512 SPF)
  • Bit depth                                : 24 bits
  • Compression mode                         : Lossy
  • Stream size                              : 619 MiB (7%)
  • Language                                 : Japanese
  • Default                                  : Yes
  • Forced                                   : No
  • Text #1
  • ID                                       : 3
  • Format                                   : UTF-8
  • Codec ID                                 : S_TEXT/UTF8
  • Codec ID/Info                            : UTF-8 Plain Text
  • Duration                                 : 1 h 47 min
  • Bit rate                                 : 36 b/s
  • Count of elements                        : 1129
  • Stream size                              : 29.0 KiB (0%)
  • Language                                 : English
  • Default                                  : No
  • Forced                                   : No
  • Text #2
  • ID                                       : 4
  • Format                                   : ASS
  • Codec ID                                 : S_TEXT/ASS
  • Codec ID/Info                            : Advanced Sub Station Alpha
  • Duration                                 : 1 h 48 min
  • Bit rate                                 : 59 b/s
  • Count of elements                        : 1048
  • Compression mode                         : Lossless
  • Stream size                              : 47.4 KiB (0%)
  • Title                                    : Simplified
  • Language                                 : Chinese
  • Default                                  : Yes
  • Forced                                   : No
  • Text #3
  • ID                                       : 5
  • Format                                   : ASS
  • Codec ID                                 : S_TEXT/ASS
  • Codec ID/Info                            : Advanced Sub Station Alpha
  • Duration                                 : 1 h 48 min
  • Bit rate                                 : 59 b/s
  • Count of elements                        : 1048
  • Compression mode                         : Lossless
  • Stream size                              : 47.4 KiB (0%)
  • Title                                    : Traditional
  • Language                                 : Chinese
  • Default                                  : No
  • Forced                                   : No
  • Menu
  • 00:00:00.000                             : en:第 01 章
  • 00:07:46.299                             : en:第 02 章
  • 00:18:30.109                             : en:第 03 章
  • 00:25:04.753                             : en:第 04 章
  • 00:32:19.020                             : en:第 05 章
  • 00:37:17.568                             : en:第 06 章
  • 00:42:05.147                             : en:第 07 章
  • 00:48:32.326                             : en:第 08 章
  • 00:54:36.564                             : en:第 09 章
  • 01:06:05.544                             : en:第 10 章
  • 01:14:33.635                             : en:第 11 章
  • 01:20:42.003                             : en:第 12 章
  • 01:29:39.457                             : en:第 13 章
  • 01:36:23.444                             : en:第 14 章
  • 01:43:00.340                             : en:第 15 章
  • 01:48:49.940                             : en:第 16 章

复制代码


午夜0时的吻 Kiss.Me.At.The.Stroke.Of.Midnight.2019.JAPANESE.1080p.BluRay.x264.DTS-iKiW 8.50GB

午夜0时的吻 Kiss.Me.At.The.Stroke.Of.Midnight.2019.JAPANESE.1080p.BluRay.x264.DTS-iKiW 8.50GB



午夜0时的吻 Kiss.Me.At.The.Stroke.Of.Midnight.2019.JAPANESE.1080p.BluRay.x264.DTS-iKiW 8.50GB

午夜0时的吻 Kiss.Me.At.The.Stroke.Of.Midnight.2019.JAPANESE.1080p.BluRay.x264.DTS-iKiW 8.50GB



午夜0时的吻 Kiss.Me.At.The.Stroke.Of.Midnight.2019.JAPANESE.1080p.BluRay.x264.DTS-iKiW 8.50GB

午夜0时的吻 Kiss.Me.At.The.Stroke.Of.Midnight.2019.JAPANESE.1080p.BluRay.x264.DTS-iKiW 8.50GB



蓝光高清网提示您  点击下方附件名称  马上开始下载

午夜0时的吻 Kiss.Me.At.The.Stroke.Of.Midnight.2019.JAPANESE.1080p.BluRay.x264.DTS-iKiW 8.50GB
Kiss.Me.At.The.Stroke.Of.Midnight.2019.JAPANESE.1080p.BluRay.x264.DTS-iKiW.torrent 
         (43.11 KB    阅读权限: 0)
加入蓝光高清网VIP会员  无限制下载本站所有资源---点这里

资源下载、资源播放、字幕使用、无法下载等常见问题---点这里
回复

使用道具 举报

您需要登录后才可以回帖 登录 | 立即注册

本版积分规则

关注0

粉丝1

帖子88155

发布主题
最新电影 论坛
本期活动
联系我们
点击这里联系客服

服务时间:
周一到周日8:00-23:30

  • 打开微信扫一扫
    关注公众号

  • 手机QQ扫一扫
    添加客服

手机版蓝光高清网 |网站地图

Powered by Discuz! X3.4 Licensed  © 2001-2013 Comsenz Inc.