[喜剧] 七宝奇谋/小灵精 The.Goonies.1985.REMASTERED.1080p.BluRay.x264.DTS-SWTYBLZ 12.55GB

[复制链接]
蓝鸟 发表于 2020-9-13 10:15:17 | 显示全部楼层 |阅读模式 打印 上一主题 下一主题

七宝奇谋/小灵精 The.Goonies.1985.REMASTERED.1080p.BluRay.x264.DTS-SWTYBLZ 12.55GB

七宝奇谋/小灵精 The.Goonies.1985.REMASTERED.1080p.BluRay.x264.DTS-SWTYBLZ 12.55GB



译  名 七宝奇谋 / 小灵精
片  名 The Goonies
年  代 1985
产  地 美国
类  别 喜剧 / 家庭 / 冒险
语  言 英语 / 西班牙语 / 粤语 / 意大利语
上映日期 1985-06-07
IMDb评分  7.8/10 from 230723 users
IMDb链接  https://www.imdb.com/title/tt0089218
豆瓣评分 7.6/10 from 2850 users
豆瓣链接 https://movie.douban.com/subject/1298273/
片  长 114 分钟
导  演 理查德·唐纳 Richard Donner
编  剧 克里斯·哥伦布 Chris Columbus / 史蒂文·斯皮尔伯格 Steven Spielberg
主  演 西恩·奥斯汀 Sean Astin
       乔什·布洛林 Josh Brolin
       杰夫·科恩 Jeff Cohen
       科里·费尔德曼 Corey Feldman
       凯利·格林 Kerri Green
       玛莎·普林顿 Martha Plimpton
       关继威 Jonathan Ke Quan
       John Matuszak
       罗伯特·戴维 Robert Davi
       乔·潘托里亚诺 Joe Pantoliano
       安妮·拉姆塞 Anne Ramsey
       露贝·安缇维洛 Lupe Ontiveros
       玛丽·艾伦·特雷纳 Mary Ellen Trainor
       基思·沃克 Keith Walker
       Curt Hanson
       史蒂芬·安汀 Steven Antin
       George Robotham
       Charles McDaniel
       迈克尔·保罗·陈 Michael Paul Chan
       Nick McLean
       Jeb Stuart Adams
       吉纳·罗斯 Gene Ross
       纽维特·阿诺 Newt Arnold
       理查德·唐纳 Richard Donner
       辛迪·劳帕 Cyndi Lauper


标  签 冒险 | 美国 | 儿童 | 喜剧 | 1985 | 斯皮尔伯格 | 探险 | 美国电影

简  介  

  故事发生在美国西岸的一个小镇中,开发者的到来扰乱了当地居民的平静生活,他们企图将这片人们赖以生存的土地据为己有,对于居民们来说,流离失所的生活似乎在所难免。米奇(西恩·奥斯汀 Sean Astin 饰)和布莱登(乔什·布洛林 Josh Brolin 饰)是一对兄弟,一次偶然中,他们获得了一张年代久远的海盗藏宝图。这一发现让兄弟两人欣喜若狂,因为如果藏宝图所言不假,那么他们就能够守住他们的家园。
  在朋友们的帮助下,兄弟两人找到了宝藏的入口,它不在别处,正在福瑞特利家的楼下。让众人感到十分头痛的是,这个福瑞特利家族在小镇上有着远扬的坏名声,当宝藏存在的消息不胫而走后,他们显然已经为了能够将其据为己有而展开了行动。



该资源信息参数
  • Video
  • ID                                       : 1
  • Format                                   : AVC
  • Format/Info                              : Advanced Video Codec
  • Format profile                           : High@L4.1
  • Format settings                          : CABAC / 5 Ref Frames
  • Format settings, CABAC                   : Yes
  • Format settings, Reference frames        : 5 frames
  • Codec ID                                 : V_MPEG4/ISO/AVC
  • Duration                                 : 1 h 53 min
  • Bit rate                                 : 14.3 Mb/s
  • Width                                    : 1 920 pixels
  • Height                                   : 800 pixels
  • Display aspect ratio                     : 2.40:1
  • Frame rate mode                          : Constant
  • Frame rate                               : 23.976 (24000/1001/45378) FPS
  • Color space                              : YUV
  • Chroma subsampling                       : 4:2:0
  • Bit depth                                : 8 bits
  • Scan type                                : Progressive
  • Bits/(Pixel*Frame)                       : 0.387
  • Stream size                              : 11.4 GiB (90%)
  • Title                                    : The.Goonies.1985.REMASTERED.1080p.BluRay.x264.DTS-SWTYBLZ
  • Writing library                          : x264 core 157 r2935 545de2f
  • Encoding settings                        : cabac=1 / ref=5 / deblock=1:-1:-1 / analyse=0x3:0x133 / me=umh / subme=10 / psy=1 / psy_rd=1.00:0.15 / mixed_ref=1 / me_range=48 / chroma_me=1 / trellis=2 / 8x8dct=1 / cqm=0 / deadzone=21,11 / fast_pskip=1 / chroma_qp_offset=-3 / threads=25 / lookahead_threads=4 / sliced_threads=0 / nr=0 / decimate=0 / interlaced=0 / bluray_compat=0 / constrained_intra=0 / bframes=8 / b_pyramid=2 / b_adapt=2 / b_bias=0 / direct=3 / weightb=1 / open_gop=0 / weightp=2 / keyint=250 / keyint_min=23 / scenecut=40 / intra_refresh=0 / rc_lookahead=60 / rc=crf / mbtree=1 / crf=15.0 / qcomp=0.60 / qpmin=0 / qpmax=69 / qpstep=4 / ip_ratio=1.40 / aq=1:1.00
  • Language                                 : English
  • Default                                  : Yes
  • Forced                                   : No
  • Audio
  • ID                                       : 2
  • Format                                   : DTS
  • Format/Info                              : Digital Theater Systems
  • Codec ID                                 : A_DTS
  • Duration                                 : 1 h 53 min
  • Bit rate mode                            : Constant
  • Bit rate                                 : 1 509 kb/s
  • Channel(s)                               : 6 channels
  • Channel layout                           : C L R Ls Rs LFE
  • Sampling rate                            : 48.0 kHz
  • Frame rate                               : 93.750 FPS (512 SPF)
  • Bit depth                                : 16 bits
  • Compression mode                         : Lossy
  • Stream size                              : 1.20 GiB (10%)
  • Title                                    : The.Goonies.1985.REMASTERED.1080p.BluRay.x264.DTS-SWTYBLZ
  • Language                                 : English
  • Default                                  : Yes
  • Forced                                   : No
  • Text
  • ID                                       : 3
  • Format                                   : UTF-8
  • Codec ID                                 : S_TEXT/UTF8
  • Codec ID/Info                            : UTF-8 Plain Text
  • Duration                                 : 1 h 47 min
  • Bit rate                                 : 60 b/s
  • Count of elements                        : 1422
  • Stream size                              : 48.1 KiB (0%)
  • Language                                 : English
  • Default                                  : Yes
  • Forced                                   : No
  • Menu
  • 00:00:00.000                             : en:Chapter 01
  • 00:05:04.554                             : en:Chapter 02
  • 00:07:08.636                             : en:Chapter 03
  • 00:09:54.302                             : en:Chapter 04
  • 00:13:49.370                             : en:Chapter 05
  • 00:20:02.159                             : en:Chapter 06
  • 00:22:44.738                             : en:Chapter 07
  • 00:25:37.327                             : en:Chapter 08
  • 00:27:13.006                             : en:Chapter 09
  • 00:30:40.421                             : en:Chapter 10
  • 00:33:33.970                             : en:Chapter 11
  • 00:36:48.164                             : en:Chapter 12
  • 00:38:42.194                             : en:Chapter 13
  • 00:42:13.113                             : en:Chapter 14
  • 00:46:10.434                             : en:Chapter 15
  • 00:48:42.836                             : en:Chapter 16
  • 00:49:47.442                             : en:Chapter 17
  • 00:52:52.002                             : en:Chapter 18
  • 00:55:47.802                             : en:Chapter 19
  • 00:58:12.155                             : en:Chapter 20
  • 00:59:31.150                             : en:Chapter 21
  • 01:03:34.018                             : en:Chapter 22
  • 01:07:11.736                             : en:Chapter 23
  • 01:09:45.681                             : en:Chapter 24
  • 01:12:47.571                             : en:Chapter 25
  • 01:15:19.848                             : en:Chapter 26
  • 01:18:18.443                             : en:Chapter 27
  • 01:22:06.630                             : en:Chapter 28
  • 01:23:39.639                             : en:Chapter 29
  • 01:27:14.896                             : en:Chapter 30
  • 01:30:33.970                             : en:Chapter 31
  • 01:33:39.113                             : en:Chapter 32
  • 01:38:38.704                             : en:Chapter 33
  • 01:41:27.456                             : en:Chapter 34
  • 01:45:15.058                             : en:Chapter 35
  • 01:47:13.051                             : en:Chapter 36
  • 01:48:31.004                             : en:Chapter 37

复制代码


七宝奇谋/小灵精 The.Goonies.1985.REMASTERED.1080p.BluRay.x264.DTS-SWTYBLZ 12.55GB

七宝奇谋/小灵精 The.Goonies.1985.REMASTERED.1080p.BluRay.x264.DTS-SWTYBLZ 12.55GB



七宝奇谋/小灵精 The.Goonies.1985.REMASTERED.1080p.BluRay.x264.DTS-SWTYBLZ 12.55GB

七宝奇谋/小灵精 The.Goonies.1985.REMASTERED.1080p.BluRay.x264.DTS-SWTYBLZ 12.55GB



七宝奇谋/小灵精 The.Goonies.1985.REMASTERED.1080p.BluRay.x264.DTS-SWTYBLZ 12.55GB

七宝奇谋/小灵精 The.Goonies.1985.REMASTERED.1080p.BluRay.x264.DTS-SWTYBLZ 12.55GB



蓝光高清网提示您  点击下方附件名称  马上开始下载

七宝奇谋/小灵精 The.Goonies.1985.REMASTERED.1080p.BluRay.x264.DTS-SWTYBLZ 12.55GB
The.Goonies.1985.REMASTERED.1080p.BluRay.x264.DTS-SWTYBLZ.torrent 
         (63.31 KB    阅读权限: 0)
加入蓝光高清网VIP会员  无限制下载本站所有资源---点这里

资源下载、资源播放、字幕使用、无法下载等常见问题---点这里
回复

使用道具 举报

您需要登录后才可以回帖 登录 | 立即注册

本版积分规则

关注0

粉丝1

帖子88155

发布主题
最新电影 论坛
本期活动
联系我们
点击这里联系客服

服务时间:
周一到周日8:00-23:30

  • 打开微信扫一扫
    关注公众号

  • 手机QQ扫一扫
    添加客服

手机版蓝光高清网 |网站地图

Powered by Discuz! X3.4 Licensed  © 2001-2013 Comsenz Inc.