[喜剧] 离婚邀请 Divorce.Invitation.2012.1080p.BluRay.x264-GUACAMOLE 7.65GB

[复制链接]
蓝鸟 发表于 2020-9-13 10:16:35 | 显示全部楼层 |阅读模式 打印 上一主题 下一主题

离婚邀请 Divorce.Invitation.2012.1080p.BluRay.x264-GUACAMOLE 7.65GB

离婚邀请 Divorce.Invitation.2012.1080p.BluRay.x264-GUACAMOLE 7.65GB



译  名 离婚邀请
片  名 Divorce Invitation
年  代 2012
产  地 美国
类  别 喜剧 / 爱情
语  言 英语
上映日期 2012-06-26(美国)
IMDb评分  4.6/10 from 1395 users
IMDb链接  https://www.imdb.com/title/tt2006721
豆瓣评分 0/10 from 0 users
豆瓣链接 https://movie.douban.com/subject/6876048/
片  长 110分钟
编  剧 Bala Rajasekharuni
主  演 乔纳森·本内特 Jonathan Bennett
       娜迪亚·比约林 Nadia Bjorlin
       理查德·坎德 Richard Kind
       吉米-林·辛格勒 Jamie-Lynn Sigler
       安德莉·鲍恩 Andrea Bowen
       阿曼达·莱顿 Amanda Leighton
       德鲁·加勒特 Drew Garrett
       约翰·罗伯特 John Robert


标  签 美国 | 喜剧 | 2012 | 美国电影 | 猎奇 | 天翼盘

简  介  

  本部电影围绕Mike Christian展开,一名快乐的已婚男人遇到他高中的甜心亚历克斯,虽然这么多年过去,他们之间仍然察出火花。当迈克决定亚历克斯是他真正的灵魂伴侣。他意识到他有一个巨大的问题,他签署了一项婚前协议并且他的妻子不会让他离婚



该资源信息参数
  • Video
  • ID                                       : 1
  • Format                                   : AVC
  • Format/Info                              : Advanced Video Codec
  • Format profile                           : High@L4.1
  • Format settings                          : CABAC / 4 Ref Frames
  • Format settings, CABAC                   : Yes
  • Format settings, Reference frames        : 4 frames
  • Codec ID                                 : V_MPEG4/ISO/AVC
  • Duration                                 : 1 h 48 min
  • Bit rate                                 : 8 607 kb/s
  • Width                                    : 1 920 pixels
  • Height                                   : 1 080 pixels
  • Display aspect ratio                     : 16:9
  • Frame rate mode                          : Constant
  • Frame rate                               : 25.000 FPS
  • Color space                              : YUV
  • Chroma subsampling                       : 4:2:0
  • Bit depth                                : 8 bits
  • Scan type                                : Progressive
  • Bits/(Pixel*Frame)                       : 0.166
  • Stream size                              : 6.36 GiB (83%)
  • Title                                    : Divorce Invitation (2012)
  • Writing library                          : x264 core 142 r2491 24e4fed
  • Encoding settings                        : cabac=1 / ref=4 / deblock=1:0:0 / analyse=0x3:0x113 / me=umh / subme=7 / psy=1 / psy_rd=1.00:0.00 / mixed_ref=1 / me_range=16 / chroma_me=1 / trellis=1 / 8x8dct=1 / cqm=0 / deadzone=21,11 / fast_pskip=0 / chroma_qp_offset=-2 / threads=12 / lookahead_threads=2 / sliced_threads=0 / nr=0 / decimate=1 / interlaced=0 / bluray_compat=0 / constrained_intra=0 / bframes=3 / b_pyramid=2 / b_adapt=2 / b_bias=0 / direct=3 / weightb=1 / open_gop=0 / weightp=2 / keyint=250 / keyint_min=25 / scenecut=40 / intra_refresh=0 / rc_lookahead=50 / rc=2pass / mbtree=1 / bitrate=8607 / ratetol=1.0 / qcomp=0.60 / qpmin=0 / qpmax=69 / qpstep=4 / cplxblur=20.0 / qblur=0.5 / ip_ratio=1.40 / aq=1:1.00
  • Default                                  : Yes
  • Forced                                   : No
  • Audio
  • ID                                       : 2
  • Format                                   : DTS
  • Format/Info                              : Digital Theater Systems
  • Codec ID                                 : A_DTS
  • Duration                                 : 1 h 48 min
  • Bit rate mode                            : Constant
  • Bit rate                                 : 1 509 kb/s
  • Channel(s)                               : 6 channels
  • Channel layout                           : C L R Ls Rs LFE
  • Sampling rate                            : 48.0 kHz
  • Frame rate                               : 93.750 FPS (512 SPF)
  • Bit depth                                : 24 bits
  • Compression mode                         : Lossy
  • Stream size                              : 1.14 GiB (15%)
  • Title                                    : English
  • Language                                 : English
  • Default                                  : Yes
  • Forced                                   : No

复制代码


离婚邀请 Divorce.Invitation.2012.1080p.BluRay.x264-GUACAMOLE 7.65GB

离婚邀请 Divorce.Invitation.2012.1080p.BluRay.x264-GUACAMOLE 7.65GB



离婚邀请 Divorce.Invitation.2012.1080p.BluRay.x264-GUACAMOLE 7.65GB

离婚邀请 Divorce.Invitation.2012.1080p.BluRay.x264-GUACAMOLE 7.65GB



离婚邀请 Divorce.Invitation.2012.1080p.BluRay.x264-GUACAMOLE 7.65GB

离婚邀请 Divorce.Invitation.2012.1080p.BluRay.x264-GUACAMOLE 7.65GB



蓝光高清网提示您  点击下方附件名称  马上开始下载

离婚邀请 Divorce.Invitation.2012.1080p.BluRay.x264-GUACAMOLE 7.65GB
Divorce.Invitation.2012.1080p.BluRay.x264-GUACAMOLE.torrent 
         (38.78 KB    阅读权限: 0)
加入蓝光高清网VIP会员  无限制下载本站所有资源---点这里

资源下载、资源播放、字幕使用、无法下载等常见问题---点这里
回复

使用道具 举报

精彩评论1

老地方的雨 发表于 2020-9-14 10:41:31 | 显示全部楼层

天天访问蓝光高清网  天天打卡  习惯了
回复

使用道具 举报

您需要登录后才可以回帖 登录 | 立即注册

本版积分规则

关注0

粉丝1

帖子88155

发布主题
最新电影 论坛
本期活动
联系我们
点击这里联系客服

服务时间:
周一到周日8:00-23:30

  • 打开微信扫一扫
    关注公众号

  • 手机QQ扫一扫
    添加客服

手机版蓝光高清网 |网站地图

Powered by Discuz! X3.4 Licensed  © 2001-2013 Comsenz Inc.