[喜剧] OSS117之开罗谍影/法国特工117 OSS.117.Cairo.Nest.of.Spies.2006.FRENCH.1080p.BluRay.x264-HANDJOB 9.87GB

[复制链接]
蓝鸟 发表于 2020-9-13 10:20:29 | 显示全部楼层 |阅读模式 打印 上一主题 下一主题

OSS117之开罗谍影/法国特工117 OSS.117.Cairo.Nest.of.Spies.2006.FRENCH.1080p.BluRay.x264-HANDJOB 9.87G ...

OSS117之开罗谍影/法国特工117 OSS.117.Cairo.Nest.of.Spies.2006.FRENCH.1080p.BluRay.x264-HANDJOB 9.87G ...



译  名 OSS117之开罗谍影 / OSS 117: Cairo, Nest of Spies / 法国特工117
片  名 OSS 117: Le Caire, nid d"espions
年  代 2006
产  地 法国
类  别 喜剧 / 犯罪 / 冒险
语  言 法语
上映日期 2006-04-19
IMDb评分  7.1/10 from 17715 users
IMDb链接  https://www.imdb.com/title/tt0464913
豆瓣评分 6.5/10 from 1271 users
豆瓣链接 https://movie.douban.com/subject/1766496/
片  长 99 分钟
导  演 迈克尔·哈扎纳维希乌斯 Michel Hazanavicius
编  剧 Jean-Fran?ois Halin / Jean Bruce / 迈克尔·哈扎纳维希乌斯 Michel Hazanavicius
主  演 让·杜雅尔丹 Jean Dujardin
       贝热尼丝·贝乔 Bérénice Bejo
       弗朗索瓦·达米昂 Fran?ois Damiens


标  签 法国 | 喜剧 | 法国电影 | 特工 | 2006 | 恶搞 | 间谍 | 搞笑

简  介  

  1955年,埃及首都开罗。落寞的法老王家庭后代想夺回他们的王位,秘密的宗教组织K想操纵政府。法国总统也派来了自家的密探117来趟混水。荒唐无稽的事情层出不穷。
  英国有个邦德007,法国则出了个特工117。而且这个117早在1949年就活跃在银幕上了,比第一部邦德还早4年。不过这个117的长处是搞笑而不是枪战和特殊武器。影片整体格调轻松、诙谐,很有法国风味。男主角十足的50年代的语言、表情、动作都让人发笑,甚至有打了发胶的溜光的头发!当然也缺不了女间谍,她们不像邦德女郎那样火辣身材但是一言一行都优雅风趣。
  你是不是已经对于百战百胜的邦德和他的女郎们有点厌倦了,那不如让我们一起感受一下法国式的自嘲吧。
  导演介绍:
  法国导演、演员、编剧,曾经演出了2001年《人人都爱我老婆》,担任2004年《达尔顿兄弟》的编剧。1999年导演了《Mes amis》。
  幕后花絮:
  东京电影节评委会将电影节最高奖项——金麒麟奖——颁给法国喜剧影片《OSS117之开罗谍影》(OSS 117 Cairo Nest of Spies),并获得10万美元奖金。这部影片由法国喜剧明星让·杜雅赫丹(Jean Dujardin)。它的获奖被普遍认为是本届电影节上爆出的一个冷门,即便是影片的导演迈克尔·哈扎纳维希乌斯(Michel Hazanavicius)也是如此认为。他在新闻发布会上表示:“喜剧获得任何一个奖项都极为罕见,更何况是电影节的最高奖项了。我对我们能获此殊荣吃惊不已,我觉得非常、非常荣幸。”
  这部间谍电影混合了法式讽刺和故意为之的智慧把法国喜剧的精神再次展现在世人面前。曾经风靡50-60年代的OSS间谍系列在今天还有一大批铁杆粉丝。系列中新作邀请了出演过《押运人》和《劳斯一家》等诸多影视作品的法国影星Jean Dujardin 扮演间谍。本片在法国上映期间大获好评,一度复活了处于谷底的法国电影工业。OOS间谍出场和007有着几份雷同,可007背后有强大的科技力量相比, OOS117却连装备也是自己亲手秘密研制。

获奖情况  

  第19届东京国际电影节(2006)
  主竞赛单元 最佳影片 米歇尔·阿扎纳维西于斯



该资源信息参数
  • Video
  • ID                                       : 1
  • Format                                   : AVC
  • Format/Info                              : Advanced Video Codec
  • Format profile                           : High@L4
  • Format settings                          : CABAC / 3 Ref Frames
  • Format settings, CABAC                   : Yes
  • Format settings, Reference frames        : 3 frames
  • Codec ID                                 : V_MPEG4/ISO/AVC
  • Duration                                 : 1 h 39 min
  • Bit rate                                 : 11.8 Mb/s
  • Width                                    : 1 920 pixels
  • Height                                   : 818 pixels
  • Display aspect ratio                     : 2.35:1
  • Frame rate mode                          : Constant
  • Frame rate                               : 23.976 (24000/1001/45378) FPS
  • Color space                              : YUV
  • Chroma subsampling                       : 4:2:0
  • Bit depth                                : 8 bits
  • Scan type                                : Progressive
  • Bits/(Pixel*Frame)                       : 0.313
  • Stream size                              : 8.14 GiB (82%)
  • Writing library                          : x264 core 142 r2479 dd79a61
  • Encoding settings                        : cabac=1 / ref=4 / deblock=1:-3:-3 / analyse=0x3:0x133 / me=umh / subme=11 / psy=1 / psy_rd=1.00:0.05 / mixed_ref=1 / me_range=32 / chroma_me=1 / trellis=2 / 8x8dct=1 / cqm=0 / deadzone=21,11 / fast_pskip=0 / chroma_qp_offset=-3 / threads=12 / lookahead_threads=2 / sliced_threads=0 / nr=0 / decimate=1 / interlaced=0 / bluray_compat=0 / constrained_intra=0 / bframes=9 / b_pyramid=1 / b_adapt=2 / b_bias=0 / direct=3 / weightb=1 / open_gop=0 / weightp=2 / keyint=240 / keyint_min=24 / scenecut=40 / intra_refresh=0 / rc_lookahead=240 / rc=crf / mbtree=1 / crf=14.0 / qcomp=0.70 / qpmin=0 / qpmax=69 / qpstep=4 / ip_ratio=1.40 / aq=1:0.80
  • Language                                 : French
  • Default                                  : Yes
  • Forced                                   : No
  • Color range                              : Limited
  • Color primaries                          : BT.709
  • Transfer characteristics                 : BT.709
  • Matrix coefficients                      : BT.709
  • Audio #1
  • ID                                       : 2
  • Format                                   : DTS XBR
  • Format/Info                              : Digital Theater Systems
  • Commercial name                          : DTS-HD High Resolution Audio
  • Codec ID                                 : A_DTS
  • Duration                                 : 1 h 39 min
  • Bit rate mode                            : Constant
  • Bit rate                                 : 2 304 kb/s
  • Channel(s)                               : 6 channels
  • Channel layout                           : C L R Ls Rs LFE
  • Sampling rate                            : 48.0 kHz
  • Frame rate                               : 93.750 FPS (512 SPF)
  • Bit depth                                : 24 bits
  • Compression mode                         : Lossy
  • Stream size                              : 1.59 GiB (16%)
  • Title                                    : Surround
  • Language                                 : French
  • Default                                  : Yes
  • Forced                                   : No
  • Audio #2
  • ID                                       : 3
  • Format                                   : AC-3
  • Format/Info                              : Audio Coding 3
  • Commercial name                          : Dolby Digital
  • Codec ID                                 : A_AC3
  • Duration                                 : 1 h 39 min
  • Bit rate mode                            : Constant
  • Bit rate                                 : 192 kb/s
  • Channel(s)                               : 2 channels
  • Channel layout                           : L R
  • Sampling rate                            : 48.0 kHz
  • Frame rate                               : 31.250 FPS (1536 SPF)
  • Compression mode                         : Lossy
  • Delay relative to video                  : -83 ms
  • Stream size                              : 136 MiB (1%)
  • Title                                    : Commentary actor with Jean Dujardin and director Michel Hazanavicius
  • Language                                 : French
  • Service kind                             : Complete Main
  • Default                                  : No
  • Forced                                   : No
  • Text
  • ID                                       : 4
  • Format                                   : UTF-8
  • Codec ID                                 : S_TEXT/UTF8
  • Codec ID/Info                            : UTF-8 Plain Text
  • Duration                                 : 1 h 32 min
  • Bit rate                                 : 45 b/s
  • Count of elements                        : 1059
  • Stream size                              : 31.0 KiB (0%)
  • Language                                 : English
  • Default                                  : Yes
  • Forced                                   : No
  • Menu
  • 00:00:00.000                             : en:Chapter 1
  • 00:03:16.446                             : en:Chapter 2
  • 00:04:49.539                             : en:Chapter 3
  • 00:09:55.386                             : en:Chapter 4
  • 00:15:58.291                             : en:Chapter 5
  • 00:20:06.622                             : en:Chapter 6
  • 00:25:45.377                             : en:Chapter 7
  • 00:38:45.406                             : en:Chapter 8
  • 00:45:38.069                             : en:Chapter 9
  • 00:51:22.037                             : en:Chapter 10
  • 00:54:54.208                             : en:Chapter 11
  • 01:04:54.599                             : en:Chapter 12
  • 01:13:10.469                             : en:Chapter 13
  • 01:19:56.667                             : en:Chapter 14
  • 01:24:49.251                             : en:Chapter 15
  • 01:33:21.221                             : en:Chapter 16

复制代码


OSS117之开罗谍影/法国特工117 OSS.117.Cairo.Nest.of.Spies.2006.FRENCH.1080p.BluRay.x264-HANDJOB 9.87G ...

OSS117之开罗谍影/法国特工117 OSS.117.Cairo.Nest.of.Spies.2006.FRENCH.1080p.BluRay.x264-HANDJOB 9.87G ...



OSS117之开罗谍影/法国特工117 OSS.117.Cairo.Nest.of.Spies.2006.FRENCH.1080p.BluRay.x264-HANDJOB 9.87G ...

OSS117之开罗谍影/法国特工117 OSS.117.Cairo.Nest.of.Spies.2006.FRENCH.1080p.BluRay.x264-HANDJOB 9.87G ...



OSS117之开罗谍影/法国特工117 OSS.117.Cairo.Nest.of.Spies.2006.FRENCH.1080p.BluRay.x264-HANDJOB 9.87G ...

OSS117之开罗谍影/法国特工117 OSS.117.Cairo.Nest.of.Spies.2006.FRENCH.1080p.BluRay.x264-HANDJOB 9.87G ...



蓝光高清网提示您  点击下方附件名称  马上开始下载

OSS117之开罗谍影/法国特工117 OSS.117.Cairo.Nest.of.Spies.2006.FRENCH.1080p.BluRay.x264-HANDJOB 9.87GB
OSS.117.Cairo.Nest.of.Spies.2006.FRENCH.1080p.BluRay.x264-HANDJOB.torrent 
         (49.9 KB    阅读权限: 0)
加入蓝光高清网VIP会员  无限制下载本站所有资源---点这里

资源下载、资源播放、字幕使用、无法下载等常见问题---点这里
回复

使用道具 举报

精彩评论1

蓝色方舟 发表于 5 天前 | 显示全部楼层

祝蓝光高清网越办越红火。
回复

使用道具 举报

您需要登录后才可以回帖 登录 | 立即注册

本版积分规则

关注0

粉丝1

帖子88155

发布主题
最新电影 论坛
本期活动
联系我们
点击这里联系客服

服务时间:
周一到周日8:00-23:30

  • 打开微信扫一扫
    关注公众号

  • 手机QQ扫一扫
    添加客服

手机版蓝光高清网 |网站地图

Powered by Discuz! X3.4 Licensed  © 2001-2013 Comsenz Inc.