[悬疑] 血溅摩天楼/海市蜃楼 Mirage.1965.1080p.BluRay.x264-JustWatch 13.92GB

[复制链接]
蓝鸟 发表于 2020-9-13 10:21:43 | 显示全部楼层 |阅读模式 打印 上一主题 下一主题

血溅摩天楼/海市蜃楼 Mirage.1965.1080p.BluRay.x264-JustWatch 13.92GB

血溅摩天楼/海市蜃楼 Mirage.1965.1080p.BluRay.x264-JustWatch 13.92GB



译  名 血溅摩天楼 / 海市蜃楼
片  名 Mirage
年  代 1965
产  地 美国
类  别 悬疑 / 惊悚
语  言 英语
上映日期 1965-05-26
IMDb评分  7.3/10 from 3948 users
IMDb链接  https://www.imdb.com/title/tt0059448
豆瓣评分 0/10 from 0 users
豆瓣链接 https://movie.douban.com/subject/1301854/
片  长 108 分钟
导  演 爱德华·迪麦特雷克 Edward Dmytryk
编  剧 Howard Fast / Peter Stone (I)
主  演 Gregory Peck
       Diane Baker


标  签 美国电影 | 美国 | 悬疑 | Edward_Dmytryk | 1965 | 格里高利·派克 | Walter_Matthau | Gregory_Peck

简  介  

  在一次办公室大停电之后,会计师大卫(葛雷哥莱毕克)发现自己精神恍惚的走在纽约摩天大楼的楼梯间,几乎不记得自己是谁、曾去过哪裡,更离奇的是,在这段期间,一个男人自27楼坠落离奇身亡。从此之后,大卫所遇见的每一件事,似乎都和这个男人之死有关,他的生命甚至受到威胁。为了找出自己的真实身份,大卫求助于私家侦探泰德(华特马殊),经过一连串怪异而吓人的经历后,大卫找到一个精神病医生,他帮助大卫回忆过往,但是也使大卫陷入万劫不复的恶梦当中!大卫到底是谁?是谁要致他于死地?动机又是为什麽呢?



该资源信息参数
  • Video
  • ID                                       : 1
  • Format                                   : AVC
  • Format/Info                              : Advanced Video Codec
  • Format profile                           : High@L4.1
  • Format settings                          : CABAC / 4 Ref Frames
  • Format settings, CABAC                   : Yes
  • Format settings, Reference frames        : 4 frames
  • Codec ID                                 : V_MPEG4/ISO/AVC
  • Duration                                 : 1 h 48 min
  • Bit rate                                 : 17.6 Mb/s
  • Width                                    : 1 920 pixels
  • Height                                   : 1 040 pixels
  • Display aspect ratio                     : 1.85:1
  • Frame rate mode                          : Constant
  • Frame rate                               : 23.976 (24000/1001/45378) FPS
  • Color space                              : YUV
  • Chroma subsampling                       : 4:2:0
  • Bit depth                                : 8 bits
  • Scan type                                : Progressive
  • Bits/(Pixel*Frame)                       : 0.367
  • Stream size                              : 13.3 GiB (96%)
  • Writing library                          : x264 core 161 r3018 db0d417
  • Encoding settings                        : cabac=1 / ref=4 / deblock=1:-3:-3 / analyse=0x3:0x133 / me=umh / subme=9 / psy=1 / psy_rd=1.00:0.00 / mixed_ref=1 / me_range=16 / chroma_me=1 / trellis=2 / 8x8dct=1 / cqm=0 / deadzone=21,11 / fast_pskip=0 / chroma_qp_offset=-2 / threads=32 / lookahead_threads=2 / sliced_threads=0 / nr=0 / decimate=1 / interlaced=0 / bluray_compat=0 / constrained_intra=0 / bframes=3 / b_pyramid=2 / b_adapt=2 / b_bias=0 / direct=3 / weightb=1 / open_gop=0 / weightp=2 / keyint=250 / keyint_min=23 / scenecut=40 / intra_refresh=0 / rc_lookahead=60 / rc=crf / mbtree=1 / crf=21.0 / qcomp=0.60 / qpmin=0 / qpmax=69 / qpstep=4 / ip_ratio=1.40 / aq=1:1.00
  • Language                                 : English
  • Default                                  : Yes
  • Forced                                   : No
  • Audio #1
  • ID                                       : 2
  • Format                                   : FLAC
  • Format/Info                              : Free Lossless Audio Codec
  • Codec ID                                 : A_FLAC
  • Duration                                 : 1 h 48 min
  • Bit rate mode                            : Variable
  • Bit rate                                 : 635 kb/s
  • Channel(s)                               : 2 channels
  • Channel layout                           : L R
  • Sampling rate                            : 48.0 kHz
  • Frame rate                               : 11.719 FPS (4096 SPF)
  • Bit depth                                : 24 bits
  • Compression mode                         : Lossless
  • Stream size                              : 494 MiB (3%)
  • Writing library                          : libFLAC 1.3.2 (UTC 2017-01-01)
  • Language                                 : English
  • Default                                  : Yes
  • Forced                                   : No
  • Audio #2
  • ID                                       : 3
  • Format                                   : AAC LC
  • Format/Info                              : Advanced Audio Codec Low Complexity
  • Codec ID                                 : A_AAC-2
  • Duration                                 : 1 h 48 min
  • Bit rate                                 : 90.1 kb/s
  • Channel(s)                               : 2 channels
  • Channel layout                           : L R
  • Sampling rate                            : 48.0 kHz
  • Frame rate                               : 46.875 FPS (1024 SPF)
  • Compression mode                         : Lossy
  • Delay relative to video                  : 9 ms
  • Stream size                              : 70.1 MiB (0%)
  • Title                                    : commentary
  • Language                                 : English
  • Default                                  : No
  • Forced                                   : No
  • Text #1
  • ID                                       : 4
  • Format                                   : UTF-8
  • Codec ID                                 : S_TEXT/UTF8
  • Codec ID/Info                            : UTF-8 Plain Text
  • Duration                                 : 1 h 46 min
  • Bit rate                                 : 70 b/s
  • Count of elements                        : 1538
  • Stream size                              : 54.7 KiB (0%)
  • Language                                 : English
  • Default                                  : No
  • Forced                                   : No
  • Text #2
  • ID                                       : 5
  • Format                                   : PGS
  • Muxing mode                              : zlib
  • Codec ID                                 : S_HDMV/PGS
  • Codec ID/Info                            : Picture based subtitle format used on BDs/HD-DVDs
  • Duration                                 : 1 h 46 min
  • Bit rate                                 : 39.2 kb/s
  • Count of elements                        : 2785
  • Stream size                              : 29.9 MiB (0%)
  • Language                                 : English
  • Default                                  : No
  • Forced                                   : No
  • Text #3
  • ID                                       : 6
  • Format                                   : PGS
  • Muxing mode                              : zlib
  • Codec ID                                 : S_HDMV/PGS
  • Codec ID/Info                            : Picture based subtitle format used on BDs/HD-DVDs
  • Duration                                 : 1 h 46 min
  • Bit rate                                 : 46.8 kb/s
  • Count of elements                        : 2844
  • Stream size                              : 35.6 MiB (0%)
  • Language                                 : German
  • Default                                  : No
  • Forced                                   : No
  • Menu
  • 00:00:00.000                             : :Kapitel 01
  • 00:01:49.693                             : :Kapitel 02
  • 00:10:30.296                             : :Kapitel 03
  • 00:20:33.732                             : :Kapitel 04
  • 00:26:40.390                             : :Kapitel 05
  • 00:29:58.046                             : :Kapitel 06
  • 00:36:14.089                             : :Kapitel 07
  • 00:39:13.685                             : :Kapitel 08
  • 00:43:59.136                             : :Kapitel 09
  • 00:51:39.763                             : :Kapitel 10
  • 00:59:53.298                             : :Kapitel 11
  • 01:10:33.604                             : :Kapitel 12
  • 01:21:06.820                             : :Kapitel 13
  • 01:27:54.519                             : :Kapitel 14
  • 01:31:03.166                             : :Kapitel 15
  • 01:37:53.326                             : :Kapitel 16

复制代码


血溅摩天楼/海市蜃楼 Mirage.1965.1080p.BluRay.x264-JustWatch 13.92GB

血溅摩天楼/海市蜃楼 Mirage.1965.1080p.BluRay.x264-JustWatch 13.92GB



蓝光高清网提示您  点击下方附件名称  马上开始下载

血溅摩天楼/海市蜃楼 Mirage.1965.1080p.BluRay.x264-JustWatch 13.92GB
Mirage.1965.1080p.BluRay.x264-JustWatch.torrent 
         (70.22 KB    阅读权限: 0)
加入蓝光高清网VIP会员  无限制下载本站所有资源---点这里

资源下载、资源播放、字幕使用、无法下载等常见问题---点这里
回复

使用道具 举报

您需要登录后才可以回帖 登录 | 立即注册

本版积分规则

关注0

粉丝1

帖子88155

发布主题
最新电影 论坛
本期活动
联系我们
点击这里联系客服

服务时间:
周一到周日8:00-23:30

  • 打开微信扫一扫
    关注公众号

  • 手机QQ扫一扫
    添加客服

手机版蓝光高清网 |网站地图

Powered by Discuz! X3.4 Licensed  © 2001-2013 Comsenz Inc.