[其它] 灰狐 The.Grey.Fox.1982.1080p.BluRay.x264-NOGRP 14.16GB

[复制链接]
蓝鸟 发表于 2020-9-13 10:23:03 | 显示全部楼层 |阅读模式 打印 上一主题 下一主题

灰狐 The.Grey.Fox.1982.1080p.BluRay.x264-NOGRP 14.16GB

灰狐 The.Grey.Fox.1982.1080p.BluRay.x264-NOGRP 14.16GB



译  名 灰狐
片  名 The Grey Fox
年  代 1982
产  地 加拿大
类  别 传记 / 西部
语  言 英语
上映日期 1983-03-18
IMDb评分  7.4/10 from 1596 users
IMDb链接  https://www.imdb.com/title/tt0085622
豆瓣评分 0/10 from 0 users
豆瓣链接 https://movie.douban.com/subject/1308687/
片  长 110 分钟
导  演 菲力浦·博萨斯 Phillip Borsos
编  剧 约翰·亨特 John Hunter
主  演 理查德·法恩斯沃斯 Richard Farnsworth
       杰姬·布罗斯 Jackie Burroughs
       韦恩·罗布森 Wayne Robson
       蒂莫西·韦伯 Timothy Webber
       斯蒂芬·E·米勒 Stephen E. Miller
       安东尼·霍兰德 Anthony Holland
       Murray Ord
       Tom Glass
       梅尔·塔克 Mel Tuck
       肖恩·沙利文 Sean Sullivan
       Peter John
       加里·切克 Gary Chalk
       弗兰克·C·特纳 Frank C. Turner


标  签 加拿大 | 西部 | 传记 | 电影 | 国外电影 | 剧情 | 1982 | 1980s

简  介  

  Old West highwayman Bill Miner, known to Pinkertons as "The Gentleman Bandit," is released in 1901 after 33 years in prison, a genial and charming old man. He goes to Washington to live and work with his sister"s family. But the world has changed much while he has been away, and he just can"t adjust. So he goes to Canada and returns to the only thing familiar to him -- robbery

  谷歌为您翻译:
  老西部公路人比尔·迈纳(Bill Miner),被平克顿(Pinkertons)称为“绅士强盗”,在被监禁33年后被释放,他是一个温柔而迷人的老人。他去华盛顿与姐姐的家人生活和工作。但是当他离开时,世界已经发生了很大变化,而他只是无法适应。于是他去了加拿大,回到了他唯一熟悉的事情-抢劫

  腾讯为您翻译:
  老西部强盗比尔·米纳,被平克顿称为“绅士强盗”,在监狱服刑33年后于1901年获释,他是一位和蔼而迷人的老人。他去华盛顿和他姐姐的家人一起生活和工作。但是他不在的时候,世界发生了很大的变化,他就是不能适应。所以他去了加拿大,然后又回到了他唯一熟悉的事情上--抢劫




该资源信息参数
  • Video
  • ID                                       : 1
  • Format                                   : AVC
  • Format/Info                              : Advanced Video Codec
  • Format profile                           : High@L4.1
  • Format settings                          : CABAC / 4 Ref Frames
  • Format settings, CABAC                   : Yes
  • Format settings, Reference frames        : 4 frames
  • Codec ID                                 : V_MPEG4/ISO/AVC
  • Duration                                 : 1 h 30 min
  • Bit rate                                 : 21.9 Mb/s
  • Width                                    : 1 920 pixels
  • Height                                   : 1 038 pixels
  • Display aspect ratio                     : 1.85:1
  • Frame rate mode                          : Constant
  • Frame rate                               : 23.976 (24000/1001/45378) FPS
  • Color space                              : YUV
  • Chroma subsampling                       : 4:2:0
  • Bit depth                                : 8 bits
  • Scan type                                : Progressive
  • Bits/(Pixel*Frame)                       : 0.459
  • Stream size                              : 13.9 GiB (98%)
  • Writing library                          : x264 core 161 r3018+53 ~ Encoded by Mocunaman in Portugal
  • Encoding settings                        : cabac=1 / ref=4 / deblock=1:-3:-3 / analyse=0x3:0x113 / me=umh / subme=11 / psy=1 / fade_compensate=0.00 / psy_rd=1.05:0.00 / mixed_ref=1 / me_range=32 / chroma_me=1 / trellis=2 / 8x8dct=1 / cqm=0 / deadzone=21,11 / fast_pskip=0 / chroma_qp_offset=-2 / threads=32 / lookahead_threads=8 / sliced_threads=0 / nr=0 / decimate=0 / interlaced=0 / bluray_compat=0 / constrained_intra=0 / fgo=0 / bframes=12 / b_pyramid=2 / b_adapt=2 / b_bias=0 / direct=3 / weightb=1 / open_gop=0 / weightp=2 / keyint=250 / keyint_min=23 / scenecut=40 / intra_refresh=0 / rc_lookahead=60 / rc=crf / mbtree=0 / crf=18.0000 / qcomp=0.60 / qpmin=0:0:0 / qpmax=69:69:69 / qpstep=4 / vbv_maxrate=62500 / vbv_bufsize=78125 / crf_max=0.0 / nal_hrd=none / filler=0 / ip_ratio=1.30 / pb_ratio=1.20 / aq=3:0.70 / aq-sensitivity=10.00 / aq-factor=1.00:1.00:1.00 / aq2=0 / aq3=0
  • Language                                 : English
  • Default                                  : Yes
  • Forced                                   : No
  • Color range                              : Limited
  • Color primaries                          : BT.709
  • Transfer characteristics                 : BT.709
  • Matrix coefficients                      : BT.709
  • Audio
  • ID                                       : 2
  • Format                                   : FLAC
  • Format/Info                              : Free Lossless Audio Codec
  • Codec ID                                 : A_FLAC
  • Duration                                 : 1 h 30 min
  • Bit rate mode                            : Variable
  • Bit rate                                 : 356 kb/s
  • Channel(s)                               : 2 channels
  • Channel layout                           : L R
  • Sampling rate                            : 48.0 kHz
  • Frame rate                               : 11.719 FPS (4096 SPF)
  • Bit depth                                : 16 bits
  • Compression mode                         : Lossless
  • Stream size                              : 232 MiB (2%)
  • Writing library                          : libFLAC 1.2.1 (UTC 2007-09-17)
  • Language                                 : English
  • Default                                  : Yes
  • Forced                                   : No
  • Text
  • ID                                       : 3
  • Format                                   : UTF-8
  • Codec ID                                 : S_TEXT/UTF8
  • Codec ID/Info                            : UTF-8 Plain Text
  • Duration                                 : 1 h 23 min
  • Bit rate                                 : 38 b/s
  • Count of elements                        : 778
  • Stream size                              : 23.6 KiB (0%)
  • Language                                 : English
  • Default                                  : Yes
  • Forced                                   : No
  • Menu
  • 00:00:00.000                             : en:Chapter 01
  • 00:08:37.559                             : en:Chapter 02
  • 00:16:21.814                             : en:Chapter 03
  • 00:28:26.371                             : en:Chapter 04
  • 00:38:15.710                             : en:Chapter 05
  • 00:48:15.935                             : en:Chapter 06
  • 00:57:47.964                             : en:Chapter 07
  • 01:09:36.214                             : en:Chapter 08
  • 01:16:46.480                             : en:Chapter 09
  • 01:23:40.307                             : en:Chapter 10

复制代码


灰狐 The.Grey.Fox.1982.1080p.BluRay.x264-NOGRP 14.16GB

灰狐 The.Grey.Fox.1982.1080p.BluRay.x264-NOGRP 14.16GB



灰狐 The.Grey.Fox.1982.1080p.BluRay.x264-NOGRP 14.16GB

灰狐 The.Grey.Fox.1982.1080p.BluRay.x264-NOGRP 14.16GB



灰狐 The.Grey.Fox.1982.1080p.BluRay.x264-NOGRP 14.16GB

灰狐 The.Grey.Fox.1982.1080p.BluRay.x264-NOGRP 14.16GB



蓝光高清网提示您  点击下方附件名称  马上开始下载

灰狐 The.Grey.Fox.1982.1080p.BluRay.x264-NOGRP 14.16GB
The.Grey.Fox.1982.1080p.BluRay.x264-NOGRP.torrent 
         (71.32 KB    阅读权限: 0)
加入蓝光高清网VIP会员  无限制下载本站所有资源---点这里

资源下载、资源播放、字幕使用、无法下载等常见问题---点这里
回复

使用道具 举报

您需要登录后才可以回帖 登录 | 立即注册

本版积分规则

关注0

粉丝1

帖子88155

发布主题
最新电影 论坛
本期活动
联系我们
点击这里联系客服

服务时间:
周一到周日8:00-23:30

  • 打开微信扫一扫
    关注公众号

  • 手机QQ扫一扫
    添加客服

手机版蓝光高清网 |网站地图

Powered by Discuz! X3.4 Licensed  © 2001-2013 Comsenz Inc.