开通会员
全站资源畅享下载
4k原盘抢先下载
免高清币下载
会员用户组特权
开通会员
上传
收藏
首页
开启左侧

[真人cosplay] 《冰雪奇缘》 2K高清VR视频

[复制链接]
VR体验 发表于 2020-9-15 10:43:59 | 显示全部楼层 |阅读模式 打印 上一主题 下一主题
 

加入蓝光高清网,轻松下载最新4k资源

您需要 登录 才可以下载或查看,没有帐号?立即注册

x
本帖最后由 VR体验 于 2020-9-16 16:04 编辑

影片参数
General
Complete name                  : \\Bright-w\home\收藏视频\cosplay\冰雪奇缘.mp4
Format                         : MPEG-4
Format profile                 : Base Media / Version 2
Codec ID                       : mp42 (mp42/mp41)
File size                      : 4.64 GiB
Duration                       : 30 min 0 s
Overall bit rate mode          : Variable
Overall bit rate               : 22.1 Mb/s
Encoded date                   : UTC 2018-01-10 17:32:31
Tagged date                    : UTC 2018-01-10 17:34:49
TIM                            : 00:00:00:00
TSC                            : 60000
TSZ                            : 1001


Video
ID                             : 1
Format                         : AVC
Format/Info                    : Advanced Video Codec
Format profile                 : Main@L5.2
Format settings                : CABAC / 4 Ref Frames
Format settings, CABAC         : Yes
Format settings, Reference fra : 4 frames
Codec ID                       : avc1
Codec ID/Info                  : Advanced Video Coding
Duration                       : 30 min 0 s
Bit rate                       : 22.0 Mb/s
Width                          : 3 840 pixels
Height                         : 1 920 pixels
Display aspect ratio           : 2.000
Frame rate mode                : Constant
Frame rate                     : 59.940 (60000/1001) FPS
Standard                       : NTSC
Color space                    : YUV
Chroma subsampling             : 4:2:0
Bit depth                      : 8 bits
Scan type                      : Progressive
Bits/(Pixel*Frame)             : 0.050
Stream size                    : 4.60 GiB (99%)
Language                       : English
Encoded date                   : UTC 2018-01-10 17:32:31
Tagged date                    : UTC 2018-01-10 17:32:31
Color range                    : Limited
Color primaries                : BT.709
Transfer characteristics       : BT.709
Matrix coefficients            : BT.709
Codec configuration box        : avcC


Audio
ID                             : 2
Format                         : AAC LC
Format/Info                    : Advanced Audio Codec Low Complexity
Codec ID                       : mp4a-40-2
Duration                       : 30 min 0 s
Source duration                : 30 min 0 s
Bit rate mode                  : Variable
Bit rate                       : 192 kb/s
Maximum bit rate               : 299 kb/s
Channel(s)                     : 2 channels
Channel layout                 : L R
Sampling rate                  : 48.0 kHz
Frame rate                     : 46.875 FPS (1024 SPF)
Compression mode               : Lossy
Stream size                    : 40.7 MiB (1%)
Source stream size             : 40.7 MiB (1%)
Language                       : English
Encoded date                   : UTC 2018-01-10 17:32:31
Tagged date                    : UTC 2018-01-10 17:32:31

精彩剧照
冰雪奇缘.mp4_20200915_104138.460.jpg 冰雪奇缘.mp4_20200915_104144.604.jpg 冰雪奇缘.mp4_20200915_104147.805.jpg 冰雪奇缘.mp4_20200915_104152.034.jpg 冰雪奇缘.mp4_20200915_104201.090.jpg 冰雪奇缘.mp4_20200915_104218.369.jpg


蓝光高清网提示您  点击下方附件名称  马上开始下载

《冰雪奇缘》 2K高清VR视频百度网盘下载
《冰雪奇缘》 2K高清VR视频.txt (文件大小:75 Bytes)
回复

使用道具 举报

 

精彩评论35

正序浏览
流星花园 发表于 2020-11-14 12:41:46 | 显示全部楼层
 
好片子,有意思
回复

使用道具 举报

 
zhuce11 发表于 2020-11-17 21:01:31 | 显示全部楼层
 
to see see
回复

使用道具 举报

 
Slince 发表于 2020-12-4 18:37:05 | 显示全部楼层
 
111111111111111111111111
回复

使用道具 举报

 
king13 发表于 2020-12-4 22:45:04 | 显示全部楼层
 
时间的客服了解
回复

使用道具 举报

 
@554 发表于 2020-12-24 17:11:26 来自手机 | 显示全部楼层
 
6666666666
回复

使用道具 举报

 
·5043 发表于 2020-12-26 16:03:12 | 显示全部楼层
 
谢谢分享辛苦了!
回复

使用道具 举报

 
德泽 发表于 2020-12-27 15:12:54 | 显示全部楼层
 
瞧瞧看看试一下
回复

使用道具 举报

 
DavidLee 发表于 2020-12-28 22:32:49 | 显示全部楼层
 
谈话人体任天堂
回复

使用道具 举报

 
小蜻蜓 发表于 2021-1-1 22:40:03 | 显示全部楼层
 
有意思 瞧瞧看!!!
回复

使用道具 举报

 
您需要登录后才可以回帖 登录 | 立即注册

本版积分规则

0关注

0粉丝

153帖子

  • 版块推荐
  • 百宝箱
最新发布更多+
广告位

电影推荐

更多+

热门电影

更多+

下载APP 签到更便捷

官方微信

手机APP

蓝光高清网

专注4k电影、4k视频、VR视频、高清电影、蓝光原盘资源

本站内容部分由用户自主分享和转载自互联网,转载目的在于传递更多信息,并不代表本网赞同其观点和对其真实性负责。

如有侵权、违反国家法律政策行为,请联系我们,我们会第一时间及时清除和处理!

举报反馈邮箱:lanniao@1080pro.net

Copyright   ©2019-2020  蓝光高清网    |网站地图