血书
4K HDR 
6.1
  • 年代: 2020年
  • 国家/地区: 美国
  • 类型: 剧情 恐怖 科幻 悬疑 
  • 导演: 布兰农·布拉加
  • 音轨: Dolby TrueHD 5.1 
  • 时长: 117分钟
  • 主演:布丽特·罗伯森 / 安娜·弗莱尔 / 拉菲·格拉沃恩 / 尤尔·瓦斯克斯 / 萨阿德·西迪基
特别声明:本站提供的所有高清电影作品均是在网上搜集,任何涉及商业盈利目的均不得使用,否则产生的一切后果将由您自己承担!本站将不对本站的任何内容负任何法律责任!该下载内容仅做宽带测试使用,请在下载后24小时内删除。请购买正版! 本站所有资源均由网上收集而来,版权归原影音公司所有,如果侵犯了你的权益,请通知我们,我们会及时删除侵权内容.

血书4K.Books.of.Blood.2020.2160p.HULU.WEBRip.x265.10bit.SDR.DDP5.1-4K电影下载—10.87 GB

[复制链接]
蓝鸟 发表于 2020-10-8 09:56:03 | 显示全部楼层 |阅读模式 打印 上一主题 下一主题
简       介
5 t3 ?5 s- [. X1 d/ G) Z4 H, O3 {2 b# r" r1 @
  改编自作家克莱夫·巴克同名小说,穿越时空纠结的三个故事进入未知和禁地的旅程。. F, T/ X9 c5 C$ G8 A/ V

) L: D+ I( G' o4 y* H8 W
% G. d) e' Y3 p0 j$ w
影片参数( ~2 w0 [+ D1 b7 B
血书4K.Books.of.Blood.2020.2160p.HULU.WEBRip.x265.10bit.SDR.DDP5.1-4k电影信息
$ y0 d6 V' y4 zVideo1 R! G4 c2 B$ S, l0 T( x9 ~
ID : 18 P, x+ @0 v& e. I+ K& N
Format : HEVC
/ M+ w  y6 R3 i) z* O& F( q1 pFormat/Info : High Efficiency Video Coding! U  u# E5 w8 X0 p) T5 d4 j9 D
Format profile : Main 10@L5.1@Main
( G' k4 r. v4 u3 K1 `Codec ID : V_MPEGH/ISO/HEVC
3 F; A% k5 z) rDuration : 1 h 47 min" B# T* Y) k, M( B' s& x. e& S
Bit rate : 14.2 Mb/s: u8 [) f, C4 l  [: O, d: j
Width : 3 840 pixels
( C' z$ n7 T$ P9 ~) e0 w/ t# S- H  kHeight : 2 160 pixels
6 F/ p' Y! ]7 v4 VDisplay aspect ratio : 16:9, d5 h5 p3 t+ \- @: R4 a
Frame rate mode : Constant
4 [- L4 T7 D: B, t' u+ P7 XFrame rate : 23.976 (24000/1001) FPS
  \( k' Y& ^& Z3 m0 KColor space : YUV  h1 ]3 T4 h7 x; m  r5 ^5 n
Chroma subsampling : 4:2:0
! z2 B" R4 x7 DBit depth : 10 bits
: @$ F( A9 i' f; OBits/(Pixel*Frame) : 0.072
6 Q' [3 n' y! S% C; a* C* |Stream size : 10.7 GiB (98%)
# [" w( S$ o5 e3 EDefault : Yes7 }8 |( Z7 R2 O  n
Forced : No- y% P7 I& s3 z* Q$ [( O; ^
' j6 p! K1 M/ L$ `$ Z  p% ]) Q

: F2 x8 d% t$ h; c' V: {! DAudio
2 M# O, Q, ], Y9 \2 _% y, sID : 26 Q) y2 G( R' W1 b  ^+ I
Format : E-AC-3
7 n1 M+ [, D* A9 jFormat/Info : Enhanced AC-3
' Y" ^  T; f. x7 Y. k# n- R  CCommercial name : Dolby Digital Plus+ {6 T3 Q. |5 l8 m2 z
Codec ID : A_EAC3
: C( q) D& f, p7 F. c1 lDuration : 1 h 47 min
' ^! N) ?3 Z7 }5 e  W3 iBit rate mode : Constant
7 u  G! v; r, W5 e+ X7 K# v8 sBit rate : 256 kb/s& d4 I. R6 k% P
Channel(s) : 6 channels
7 b1 D! o' f3 {  y  GChannel layout : L R C LFE Ls Rs
4 }9 T6 @  p! A1 W0 ^% P& I$ w7 \Sampling rate : 48.0 kHz
- y7 X- p2 N4 p2 i, T3 k+ }( J- d* BFrame rate : 31.250 FPS (1536 SPF)
( e' C0 Z' |1 ACompression mode : Lossy
! Y$ d; a/ }4 C* g9 ~Stream size : 197 MiB (2%)+ J% X. z+ K( b! w+ z2 S
Language : English
% L  g9 H; F! c( I) [3 M0 JService kind : Complete Main
0 J% ?: W* i, iDefault : Yes
8 h; R% x: E$ c) B2 XForced : No8 N3 S! i' z# Q* G% V

8 @3 }0 I7 v6 R" }

1 J: ~  p$ p: r' D8 c5 NText #1
2 w- k% _1 X4 UID : 3! {3 m7 T7 J: F" y1 f5 k
Format : UTF-8& V  n: `. h4 S2 M+ B
Codec ID : S_TEXT/UTF8
1 v9 w1 b, N. }  xCodec ID/Info : UTF-8 Plain Text
7 P; r% \4 g7 P- u* F( CDuration : 1 h 46 min
( u2 I6 X% e) MBit rate : 53 b/s
( d4 M* s7 z* sCount of elements : 16267 n9 a5 b$ u" W
Stream size : 42.1 KiB (0%)
! Q* M% S0 A- T1 l' o3 M( lTitle : SDH) F" h0 ]2 c7 E' D2 a( @
Language : English% W& z" F  i) |5 q& y5 D' \
Default : No0 J# R- g7 y" {5 e& T. @4 g& Z/ H
Forced : No
9 s2 A) y: {6 V! b$ J% y" L8 p. d" H9 L2 }
% h- |$ d$ }0 A) K1 x  N6 R* o
Text #2
! d  V" u2 M; t+ A3 Y# DID : 4
. z7 i8 e: v: m- CFormat : UTF-8
3 U! N) S, {. v7 k2 hCodec ID : S_TEXT/UTF8
, s7 P* i5 h  O3 l- JCodec ID/Info : UTF-8 Plain Text' N' Y& A4 U; u" L' Z' d+ I: R; s
Duration : 1 h 46 min+ k3 ~/ P2 X& C% M1 m& d& q1 w
Bit rate : 53 b/s
. g: E3 _% N7 c9 O/ l" ?8 uCount of elements : 15954 ]% M. j0 i; T& e0 C) |8 m/ X! E
Stream size : 41.8 KiB (0%)
. N% d( |& a- A' p" D5 o7 o: h) CLanguage : Spanish
8 }2 e, z& R( h2 A  zDefault : No5 F: F! I# Z1 u4 ?" a- Z" t: b1 d
Forced : No4 ]; q" r9 \# K' D" T

4 C# c3 M, J( o) k/ ]

4 A9 m( u( a* g: t: yMenu
( |! G7 N% y1 c4 B: `2 r01:44:57.011 : en:Credits

( d' x- n1 n5 N9 T, ~
, z) ^5 l3 O; Q/ [7 j) j( z

  ?' _; D  f' I( e+ E5 U$ d4 h# F血书4K.Books.of.Blood.2020.2160p.HULU.WEBRip.x265.10bit.SDR.DDP5.1-4K电影下载5 Q0 X+ C# C, B8 Q) {# H  y- c

3 T- q' Y; ~+ x* ~& P. Q7 u1 H  N

2 o/ I! X; Y' D* g( \* X" q血书4K.Books.of.Blood.2020.2160p.HULU.WEBRip.x265.10bit.SDR.DDP5.1【10.87 GB】
8 @5 C% H6 J% H  E  M
9 n$ F! ~" Q4 w( }$ G 血书4K.Books.of.Blood.2020.2160p.HULU.WEBRip.x265.10bit.SDR.DDP5.1-NTG.torrent 
         (54.9 KB    阅读权限: 20)
加入蓝光高清网VIP会员  无限制下载本站所有资源---点这里

资源下载、资源播放、字幕使用、无法下载等常见问题---点这里
回复

使用道具 举报

精彩评论6

金9572 发表于 2020-10-8 12:14:33 | 显示全部楼层
感谢楼主的大力分享 顶顶顶顶顶顶
7 ?4 J0 Y2 m. ^0 j- t7 I( `
回复

使用道具 举报

wrangler7 发表于 2020-10-9 08:12:00 | 显示全部楼层

( H/ c! c1 h# D天天访问蓝光高清网  天天打卡  习惯了
回复

使用道具 举报

wrangler7 发表于 2020-10-10 08:26:07 | 显示全部楼层
非常感谢蓝光高清网分享的各种知识和资源,祝蓝光高清网越来越好
回复

使用道具 举报

wrangler7 发表于 2020-10-11 08:33:28 | 显示全部楼层
非常感谢蓝光高清网分享的各种知识和资源,祝蓝光高清网越来越好
回复

使用道具 举报

YYR20140123 发表于 2020-10-12 19:41:53 | 显示全部楼层

5 C) k2 n+ x/ ?% e3 t0 ]2 M非常感谢蓝光高清网给大家的享乐4k,祝蓝光高清网越办越好!
回复

使用道具 举报

wrangler7 发表于 2020-10-15 14:35:02 | 显示全部楼层

4 C3 @7 v3 s4 @" d' B, W2 E4 I0 M天天访问蓝光高清网  天天打卡  习惯了
回复

使用道具 举报

您需要登录后才可以回帖 登录 | 立即注册

本版积分规则

关注0

粉丝1

帖子89799

发布主题
最新电影 论坛
本期活动
联系我们
点击这里联系客服

服务时间:
周一到周日8:00-23:30

  • 打开微信扫一扫
    关注公众号

  • 手机QQ扫一扫
    添加客服

手机版蓝光高清网 |网站地图

Powered by Discuz! X3.4 Licensed  © 2001-2013 Comsenz Inc.