开造
4K HDR 
6.3
  • 年代: 2020年
  • 国家/地区: 美国
  • 类型: 喜剧 
  • 导演: 杰里米·加尔利
  • 音轨: DTS-HD.MA 5.1 Dolby TrueHD 5.1 
  • 时长: 98分钟
  • 主演:文斯·沃恩 / 斯凯勒·吉桑多 / 德克斯特·达登 / 爱德华多·弗兰科 / 格瑞思·范·迪恩
特别声明:本站提供的所有高清电影作品均是在网上搜集,任何涉及商业盈利目的均不得使用,否则产生的一切后果将由您自己承担!本站将不对本站的任何内容负任何法律责任!该下载内容仅做宽带测试使用,请在下载后24小时内删除。请购买正版! 本站所有资源均由网上收集而来,版权归原影音公司所有,如果侵犯了你的权益,请通知我们,我们会及时删除侵权内容.

开造4K.The.Binge.2020.2160p.HULU.WEBRip.x265.10bit.SDR.DDP5.1-4K电影下载

[复制链接]
蓝鸟 发表于 2020-10-9 10:09:26 | 显示全部楼层 |阅读模式 打印 上一主题 下一主题
简       介
6 {$ D. X' _: X8 \- s/ |8 i
* \9 t/ F1 \! S5 L: v; j; B, W  故事设定在酒精和毒品皆违法的时代,The Binge Day是所有人都能彻底放松的特赦日。; o6 w) g" p) |2 A7 _
$ I# }' A, d- ?( U, q

" H) K: v; [! a4 [) @影片参数7 o' d# s' ~, s; L
开造4K.The.Binge.2020.2160p.HULU.WEBRip.x265.10bit.SDR.DDP5.1-4k电影信息
, W+ U$ I  M& g+ ]Video
% q/ V+ `2 l3 }5 xID : 1# q% O+ R/ _: E0 q* s
Format : HEVC
' L6 O+ J( B2 E4 M; H& c. u4 i& bFormat/Info : High Efficiency Video Coding5 ], Z" G4 D/ y3 t% Z* F9 `
Format profile : Main 10@L5.1@Main9 V7 _" _& @( @. E" k
Codec ID : V_MPEGH/ISO/HEVC" X$ }' S9 t# ]: ~" w, C# B
Duration : 1 h 38 min' {& |" A) t& X- C/ i% `
Bit rate : 14.4 Mb/s  E5 ]- T. D  {5 e
Width : 3 840 pixels! b- y4 w- s# s) p0 I% s+ R
Height : 2 160 pixels
6 e( Q+ J6 b4 VDisplay aspect ratio : 16:9
3 O8 u7 D! q& Z: F( |, `" B+ cFrame rate mode : Constant
1 m# u8 M9 k# H) {Frame rate : 24.000 FPS
* M* u# {7 a3 [% |; i; f, KColor space : YUV7 F/ _5 ~% d2 x' a7 \3 i
Chroma subsampling : 4:2:0& n8 L3 l. \8 o6 `9 b
Bit depth : 10 bits3 M2 M- y. E; y0 j# n, K
Bits/(Pixel*Frame) : 0.0733 A, T  M2 e' i$ L7 w1 c! ?6 C
Stream size : 9.89 GiB (98%)
% M( W; G8 J1 r* l. ]1 \Default : Yes
5 z  z* n* X: J& ?, XForced : No8 e$ }+ j* J& U  Z& x
& L! I6 R. r0 V* @7 C
1 f5 {* m0 X3 e$ e8 ]
Audio
, _& T& D4 Z  R7 c% M- s% W/ DID : 2: X4 K- q. `, @, a5 D/ E
Format : E-AC-3: J& E: t9 B$ h2 ^3 e! K$ r
Format/Info : Enhanced AC-3: O& ^: y2 M# [
Commercial name : Dolby Digital Plus
( I! n! ]6 ?2 R# GCodec ID : A_EAC3
. @; q, E2 Q! C, \Duration : 1 h 38 min$ c, I( f2 j0 ^
Bit rate mode : Constant
6 l! P4 I- h6 D+ \/ B' DBit rate : 256 kb/s
; v" B3 X% |% H6 z& P" g! JChannel(s) : 6 channels/ C* s4 N7 k$ K8 M0 {# v
Channel layout : L R C LFE Ls Rs6 b1 e9 V, s5 F% V3 O" ?9 E
Sampling rate : 48.0 kHz
4 s$ ~+ F2 O9 B- j9 y+ FFrame rate : 31.250 FPS (1536 SPF)( J% ]& p, v5 ?0 f0 v3 W
Compression mode : Lossy
6 e8 X- I+ R. L) `% vStream size : 179 MiB (2%)
9 c' Q8 L& |7 d# M. l5 gLanguage : English
) v' B5 v3 ^$ T& t7 oService kind : Complete Main
2 {; L! T2 M  n- |8 D. i( b  |Default : Yes& ~0 [) _, z' v" t" I  s
Forced : No
& Q% r) e" p4 d
, R4 {  B( J2 t& i) ]+ m! ~

; F* `/ R# W; j0 B  T8 mText #1, D& h* b  o# n6 N$ W% R/ ]6 I
ID : 3' `4 \- o9 S/ ^0 _! v7 F
Format : UTF-8" t' F  H9 ~" ^
Codec ID : S_TEXT/UTF8
6 T2 d2 D4 Y6 H5 d# J( L! LCodec ID/Info : UTF-8 Plain Text4 I7 Z8 a$ y5 T" J6 V
Duration : 1 h 37 min, m5 i7 w" Y" G/ h4 ^+ n4 q- \( \  x7 |
Bit rate : 134 b/s/ B" l  Z. v" b, N) v
Count of elements : 2543
# n- r! x! u* k$ S4 CStream size : 96.3 KiB (0%)) F* h, a* B6 m* y- u  C  S
Language : English8 _( L& O7 F5 [" L2 g
Default : No
9 P: j: ]( A5 o6 u3 QForced : No1 Y( U2 J" L+ c. b" U
  b2 N# {* G9 K6 Y

( {3 u  L( R4 K; ^4 EText #2
7 U  Q2 a; k7 X. ?: R) K% CID : 4
0 ?# ]" J# z+ a" oFormat : UTF-8
, L0 b6 C& {/ d" L: r  y" e  SCodec ID : S_TEXT/UTF8
2 Q5 S% I$ ]3 E  ?& CCodec ID/Info : UTF-8 Plain Text9 T1 }; [+ T! F9 C2 k" D4 Z" h- w/ P
Duration : 1 h 37 min
. r! N! x  g' qBit rate : 134 b/s% e9 O4 S( m6 j9 V& o: ?6 }: M
Count of elements : 2515; \" E5 j& [: Y' ^' f( {( l  ^
Stream size : 96.2 KiB (0%)' M& j& \  d/ E
Language : Spanish
5 E" u, `) p# m4 NDefault : No& J; M% i$ m+ U/ c  U/ V3 `
Forced : No

, V. P& C% J3 s; B# y" T/ c$ l4 {5 z) ^3 I& P
蓝光高清网提示您  点击下方附件名称  马上开始下载
+ }. \4 o2 E: q+ ~1 P* \5 r( r. O
$ E: k5 U9 r4 z开造4K.The.Binge.2020.2160p.HULU.WEBRip.x265.10bit.SDR.DDP5.1-4K电影下载; @* o% y8 k+ O8 {" ^* b' D
4 `$ ~6 ~+ b) S/ B3 F' [! }
开造4K.The.Binge.2020.2160p.HULU.WEBRip.x265.10bit.SDR.DDP5.1【10.07 GB】
0 e+ b( Z, l( {" S1 u
2 x" t% {  Z& D! ?# C4 Z$ p
; B1 u  Y3 U$ V 开造4K.The.Binge.2020.2160p.HULU.WEBRip.x265.10bit.SDR.DDP5.1-playWEB.torrent 
         (50.88 KB    阅读权限: 20)
加入蓝光高清网VIP会员  无限制下载本站所有资源---点这里

资源下载、资源播放、字幕使用、无法下载等常见问题---点这里
回复

使用道具 举报

精彩评论5

gdlmxia 发表于 2020-10-9 12:59:55 | 显示全部楼层
太好啦&萬分感謝版主的無私發佈分享%
回复

使用道具 举报

喀喀 发表于 2020-10-9 22:09:53 | 显示全部楼层
非常感谢蓝光高清网分享的各种知识和资源,祝蓝光高清网越来越好
回复

使用道具 举报

wrangler7 发表于 2020-10-10 08:32:38 | 显示全部楼层
5 k' C+ o* T) H! D5 c% B  v) X
天天访问蓝光高清网  天天打卡  习惯了
回复

使用道具 举报

喀喀 发表于 2020-10-10 10:02:53 | 显示全部楼层
3 p+ q0 z. Q0 M; i$ m  R% [
身体健康,天天开心,祝蓝光高清网越办越红火
回复

使用道具 举报

YYR20140123 发表于 2020-10-12 19:44:40 | 显示全部楼层

" t$ w; y6 ?$ {% E5 N0 T非常感谢蓝光高清网给大家的享乐4k,祝蓝光高清网越办越好!
回复

使用道具 举报

您需要登录后才可以回帖 登录 | 立即注册

本版积分规则

关注0

粉丝1

帖子89799

发布主题
最新电影 论坛
本期活动
联系我们
点击这里联系客服

服务时间:
周一到周日8:00-23:30

  • 打开微信扫一扫
    关注公众号

  • 手机QQ扫一扫
    添加客服

手机版蓝光高清网 |网站地图

Powered by Discuz! X3.4 Licensed  © 2001-2013 Comsenz Inc.