游客您好
第三方账号登陆
  • 点击联系客服

    在线时间:9:00-18:00

    客服QQ

    1371333023

    电子邮件

    lanniao@1080pro.net
  • 烧友之家APP

    随时掌握烧友资讯

  • 扫描二维码

    关注微信公众号

推荐阅读
4k演示
未知星球 | 未知职业
  • 关注0
  • 粉丝0
  • 帖子766
精选帖子
开启左侧

[4K高清美剧] 觉醒 4k Woke.S01.2160p.HULU.WEBRip.DDP5.1.x265-4k美剧下载—21.33 GB

[复制链接]
4k演示 发表于 2020-10-10 11:28:06 | 显示全部楼层 |阅读模式 打印 上一主题 下一主题
觉醒

状态:第一季(完结)
上映时间:2020-09-09
类型:喜剧 
地区:美国
导演:Keith Knight / Marshall Todd / Conor Galvin
主演:拉蒙尼·莫里斯 / T. Murph / 布莱克.安德森 / 萨西尔·扎玛塔 / 罗丝·麦克莱弗
画质标准:4K(3840x2160) 封装音轨:MKV 音轨编码:其他DD
豆瓣评分:8.1分
剧情简介
Hulu宣布预订一部真人+动画的喜剧《生活觉醒 Woke》,这部剧灵感来自卡通画家Keith Knight的作品及生活,由他与Marshall Todd负责剧本。《生活觉醒》讲述卡通画家Keef(Lamorne Morris饰演)在旧金山生活,当因为一次牵涉到警察的意外使他成为事件的风浪尖后,这使得他「觉醒」过来....

加入蓝光高清网,轻松下载最新4k资源

您需要 登录 才可以下载或查看,没有帐号?立即注册

x
影片参数
觉醒4k Woke.S01.2160p.HULU.WEBRip.DDP5.1.x265-4k美剧信息
Video
ID : 1
Format : HEVC
Format/Info : High Efficiency Video Coding
Format profile : Main 10@L5.1@Main
Codec ID : V_MPEGH/ISO/HEVC
Duration : 33 min 59 s
Bit rate : 15.1 Mb/s
Width : 3 840 pixels
Height : 2 160 pixels
Display aspect ratio : 16:9
Frame rate mode : Constant
Frame rate : 23.976 (24000/1001) FPS
Color space : YUV
Chroma subsampling : 4:2:0
Bit depth : 10 bits
Bits/(Pixel*Frame) : 0.076
Stream size : 3.59 GiB (98%)
Default : Yes
Forced : No


Audio
ID : 2
Format : E-AC-3
Format/Info : Enhanced AC-3
Commercial name : Dolby Digital Plus
Codec ID : A_EAC3
Duration : 33 min 59 s
Bit rate mode : Constant
Bit rate : 256 kb/s
Channel(s) : 6 channels
Channel layout : L R C LFE Ls Rs
Sampling rate : 48.0 kHz
Frame rate : 31.250 FPS (1536 SPF)
Compression mode : Lossy
Stream size : 62.2 MiB (2%)
Language : English
Service kind : Complete Main
Default : Yes
Forced : No


Text #1
ID : 3
Format : UTF-8
Codec ID : S_TEXT/UTF8
Codec ID/Info : UTF-8 Plain Text
Duration : 33 min 34 s
Bit rate : 115 b/s
Count of elements : 799
Stream size : 28.4 KiB (0%)
Language : English
Default : No
Forced : No


Text #2
ID : 4
Format : UTF-8
Codec ID : S_TEXT/UTF8
Codec ID/Info : UTF-8 Plain Text
Duration : 32 min 58 s
Bit rate : 106 b/s
Count of elements : 725
Stream size : 25.7 KiB (0%)
Language : Spanish
Default : No
Forced : No


蓝光高清网提示您  点击下方附件名称  马上开始下载

觉醒4k Woke.S01.2160p.HULU.WEBRip.DDP5.1.x265-4k美剧下载

觉醒4k Woke.S01.2160p.HULU.WEBRip.DDP5.1.x265【21.33 GB】

觉醒4k Woke.S01.2160p.HULU.WEBRip.DDP5.1.x265-NTb[rartv].torrent (文件大小:54.4 KB)
回复

使用道具 举报

您需要登录后才可以回帖 登录 | 立即注册

本版积分规则

烧友之家(蓝光高清网)本站内容部分由用户自主分享和转载自互联网,转载目的在于传递更多信息,并不代表本网赞同其观点和对其真实性负责。 如有侵权、违反国家法律政策行为,请联系我们,我们会第一时间及时清除和处理!
蓝光高清网 综合资讯平台
关注我们
  • 官方微信公众号
  • 扫码下载官方APP

X3.4 Licensed© 2001-2013 蓝光高清网 烧友之家APP |网站地图