游客您好
第三方账号登陆
  • 点击联系客服

    在线时间:9:00-18:00

    客服QQ

    1371333023

    电子邮件

    lanniao@1080pro.net
  • 烧友之家APP

    随时掌握烧友资讯

  • 扫描二维码

    关注微信公众号

推荐阅读
4k演示
未知星球 | 未知职业
  • 关注0
  • 粉丝0
  • 帖子766
精选帖子
开启左侧

[4K 英剧] 宕机警察4k Code.404.S01.2160p.STAN.WEBRip.DDP5.1.x265-4k美剧下载—15.02 GB

[复制链接]
4k演示 发表于 2020-10-10 11:30:41 | 显示全部楼层 |阅读模式 打印 上一主题 下一主题
宕机警察

状态:第一季(完结)
上映时间:2020-04-29
类型:喜剧 
地区:英国
导演:Al Campbell
主演:理查德·加德 / 斯蒂芬·格拉汉姆 / Michelle Greenidge / 丹尼尔·梅斯
画质标准:4K(3840x2160) 封装音轨:MKV 音轨编码:其他DD
豆瓣评分:7.1分
剧情简介
背景设置在近未来,主角是高级督察John Major及Roy Carver(Daniel Mays及Stephen Graham饰 );John及Roy是队中的灭罪精英拍档,但当一次卧底任务出错并造成John殉职后,警队因认为他是不可或缺的重要「资产」,于是决定把John的意识转移到一个实验性人工智能项目,使主角复活过来。
  问题是,John Major 2.0虽然看似原版货,但其实在意识转移过程中漏失了不少东西,现在他的傲慢举动及过份热心的态度仍在,但破案直觉却通通丢掉了....

加入蓝光高清网,轻松下载最新4k资源

您需要 登录 才可以下载或查看,没有帐号?立即注册

x
本帖最后由 蓝鸟 于 2021-9-5 22:22 编辑

影片参数
出错警察 / 代码404/宕机警察4k Code.404.S01.2160p.STAN.WEBRip.DDP5.1.x265-4k美剧信息
Video
ID : 1
Format : HEVC
Format/Info : High Efficiency Video Coding
Format profile : Main@L5@High
Codec ID : V_MPEGH/ISO/HEVC
Duration : 25 min 25 s
Bit rate : 14.9 Mb/s
Width : 3 840 pixels
Height : 2 160 pixels
Display aspect ratio : 16:9
Frame rate mode : Constant
Frame rate : 25.000 FPS
Color space : YUV
Chroma subsampling : 4:2:0
Bit depth : 8 bits
Bits/(Pixel*Frame) : 0.072
Stream size : 2.65 GiB (97%)
Default : Yes
Forced : No
Color range : Limited
Color primaries : BT.709
Transfer characteristics : BT.709
Matrix coefficients : BT.709


Audio
ID : 2
Format : E-AC-3
Format/Info : Enhanced AC-3
Commercial name : Dolby Digital Plus
Codec ID : A_EAC3
Duration : 25 min 25 s
Bit rate mode : Constant
Bit rate : 384 kb/s
Channel(s) : 6 channels
Channel layout : L R C LFE Ls Rs
Sampling rate : 48.0 kHz
Frame rate : 31.250 FPS (1536 SPF)
Compression mode : Lossy
Stream size : 69.9 MiB (3%)
Language : English
Service kind : Complete Main
Default : Yes
Forced : No


Text
ID : 3
Format : UTF-8
Codec ID : S_TEXT/UTF8
Codec ID/Info : UTF-8 Plain Text
Duration : 25 min 6 s
Bit rate : 88 b/s
Count of elements : 557
Stream size : 16.4 KiB (0%)
Title : English (SDH)
Language : English
Default : No
Forced : No


蓝光高清网提示您  点击下方附件名称  马上开始下载

出错警察 / 代码404/宕机警察4k Code.404.S01.2160p.STAN.WEBRip.DDP5.1.x265-4k美剧下载

宕机警察4k Code.404.S01.2160p.STAN.WEBRip.DDP5.1.x265【15.02 GB】
宕机警察4k Code.404.S01.2160p.STAN.WEBRip.DDP5.1.x265-TOMMY[rartv].torrent (文件大小:76.1 KB)
回复

使用道具 举报

您需要登录后才可以回帖 登录 | 立即注册

本版积分规则

烧友之家(蓝光高清网)本站内容部分由用户自主分享和转载自互联网,转载目的在于传递更多信息,并不代表本网赞同其观点和对其真实性负责。 如有侵权、违反国家法律政策行为,请联系我们,我们会第一时间及时清除和处理!
蓝光高清网 综合资讯平台
关注我们
  • 官方微信公众号
  • 扫码下载官方APP

X3.4 Licensed© 2001-2013 蓝光高清网 烧友之家APP |网站地图