游客您好
第三方账号登陆
  • 点击联系客服

    在线时间:9:00-18:00

    客服QQ

    1371333023

    电子邮件

    lanniao@1080pro.net
  • 烧友之家APP

    随时掌握烧友资讯

  • 扫描二维码

    关注微信公众号

推荐阅读
4k演示
未知星球 | 未知职业
  • 关注0
  • 粉丝0
  • 帖子766
精选帖子
开启左侧

[4K 英剧] 去他妈的世界 第二季4k The.End.of.the.Fucking.World.S02.2160p.NF.WEB-DL.x265.10bit.HDR.DDP5.1.Atmos-4k电视剧下载—19.95 GB

[复制链接]
4k演示 发表于 2020-10-10 11:33:43 | 显示全部楼层 |阅读模式 打印 上一主题 下一主题
去他妈的世界

状态:第二季(完结)
上映时间:2019-11-04
类型:喜剧 剧情 爱情 冒险 
地区:英国
导演:戴斯特尼·埃卡拉加 / 露西·福布斯
主演:杰西卡·巴登 / 埃里克斯·劳瑟 / 娜奥米·阿基 / 史蒂夫·奥拉姆 / 克里斯汀·博顿利
画质标准:4K(3840x2160) 封装音轨:MKV 音轨编码:其他DD
豆瓣评分:9.2分
剧情简介
阿莉莎(杰西卡·巴登饰,《龙虾》)仍在应对第一季中各种事件带来的影响。第二季中添加了新人物邦妮,由荣获英国独立电影奖 (BIFA) 的娜奥米·阿基(《麦克白夫人》和即将上映的《星球大战 9:天行者崛起》)饰演。邦妮是一个有着复杂过往的局外人,并与阿莉莎有着神秘的联系....

加入蓝光高清网,轻松下载最新4k资源

您需要 登录 才可以下载或查看,没有帐号?立即注册

x
影片参数
这个破世界的末日 / X 你的世界末日(台) / 去他妈的世界 / 去他的世界 / 末了个日 / The End of The Fucking World/去他妈的世界 第二季4k  The.End.of.the.Fucking.World.S02.2160p.NF.WEB-DL.x265.10bit.HDR.DDP5.1.Atmos-4k美剧信息
Video
ID : 1
Format : HEVC
Format/Info : High Efficiency Video Coding
Format profile : Main 10@L5@Main
HDR format : SMPTE ST 2086, HDR10 compatible
Codec ID : V_MPEGH/ISO/HEVC
Duration : 24 min 30 s
Bit rate : 15.7 Mb/s
Width : 3 840 pixels
Height : 2 160 pixels
Display aspect ratio : 16:9
Frame rate mode : Constant
Frame rate : 25.000 FPS
Color space : YUV
Chroma subsampling : 4:2:0 (Type 2)
Bit depth : 10 bits
Bits/(Pixel*Frame) : 0.076
Stream size : 2.69 GiB (95%)
Default : Yes
Forced : No
Color range : Limited
Color primaries : BT.2020
Transfer characteristics : PQ
Matrix coefficients : BT.2020 non-constant
Mastering display color primaries : Display P3
Mastering display luminance : min: 0.0050 cd/m2, max: 4000 cd/m2
Maximum Content Light Level : 1367 cd/m2
Maximum Frame-Average Light Level : 145 cd/m2

Audio
ID : 2
Format : E-AC-3 JOC
Format/Info : Enhanced AC-3 with Joint Object Coding
Commercial name : Dolby Digital Plus with Dolby Atmos
Codec ID : A_EAC3
Duration : 25 min 4 s
Bit rate mode : Constant
Bit rate : 768 kb/s
Channel(s) : 6 channels
Channel layout : L R C LFE Ls Rs
Sampling rate : 48.0 kHz
Frame rate : 31.250 FPS (1536 SPF)
Compression mode : Lossy
Stream size : 138 MiB (5%)
Title : English
Language : English
Service kind : Complete Main
Default : No
Forced : No
Complexity index : 16
Number of dynamic objects : 15
Bed channel count : 1 channel
Bed channel configuration : LFE


蓝光高清网提示您  点击下方附件名称  马上开始下载

这个破世界的末日 / X 你的世界末日(台) / 去他妈的世界 / 去他的世界 / 末了个日 / The End of The Fucking World/去他妈的世界 第二季4k  The.End.of.the.Fucking.World.S02.2160p.NF.WEB-DL.x265.10bit.HDR.DDP5.1.Atmos-4k美剧下载

去他妈的世界 第二季4k  The.End.of.the.Fucking.World.S02.2160p.NF.WEB-DL.x265.10bit.HDR.DDP5.1.Atmos【19.95 GB】
去他妈的世界 第二季4k The.End.of.the.Fucking.World.S02.2160p.NF.WEB-DL.x265.10bi.torrent (文件大小:101.14 KB)
回复

使用道具 举报

您需要登录后才可以回帖 登录 | 立即注册

本版积分规则

烧友之家(蓝光高清网)本站内容部分由用户自主分享和转载自互联网,转载目的在于传递更多信息,并不代表本网赞同其观点和对其真实性负责。 如有侵权、违反国家法律政策行为,请联系我们,我们会第一时间及时清除和处理!
蓝光高清网 综合资讯平台
关注我们
  • 官方微信公众号
  • 扫码下载官方APP

X3.4 Licensed© 2001-2013 蓝光高清网 烧友之家APP |网站地图