我是女人
4K 
6.0
  • 年代: 2019年
  • 国家/地区: 其他
  • 类型: 传记 
  • 导演: Unjoo Moon
  • 音轨: Dolby TrueHD 5.1 
  • 时长: 116分钟
  • 主演:埃文·彼得斯 / 蒂尔达·格哈姆-哈维 / 丹妮尔·麦克唐纳 / 马修·卡德罗普 / 达斯蒂·斯隆格
特别声明:本站提供的所有高清电影作品均是在网上搜集,任何涉及商业盈利目的均不得使用,否则产生的一切后果将由您自己承担!本站将不对本站的任何内容负任何法律责任!该下载内容仅做宽带测试使用,请在下载后24小时内删除。请购买正版! 本站所有资源均由网上收集而来,版权归原影音公司所有,如果侵犯了你的权益,请通知我们,我们会及时删除侵权内容.

我是女人4K.I.Am.Woman.2019.2160p.STAN.WEBRip.AAC5.1.x265-4K电影下载—11.48 GB

[复制链接]
蓝鸟 发表于 2020-10-11 16:39:51 | 显示全部楼层 |阅读模式 打印 上一主题 下一主题
本帖最后由 蓝鸟 于 2020-10-11 16:41 编辑 ( E/ r1 O- n8 V: ^2 z

; m7 D* Z( G: l8 C' r- s简       介1 p6 t$ X- O' A: {

& ?5 Q2 J* Z% R: O  w8 Z3 J  埃文·彼得斯出演讲述澳洲女歌手海伦·瑞迪的传记片[我是女人](I Am Woman,暂译)。导演Unjoo Moon,影片聚焦上世纪七十年代澳洲知名女歌手海伦·瑞迪,片名出自瑞迪演唱的同名歌曲,该歌曲曾被选为当时女权运动的主题曲。蒂尔达·格哈姆-哈维饰瑞迪,埃文·彼得斯饰瑞迪的丈夫杰夫·沃尔德,也是她的经纪人。影片将在澳大利亚开机。
& H! N2 F7 @4 r3 i: W  j% X3 F& G( j% ?, v( I
! ~( `* _, Z. B0 ~& \: g, D
影片参数
' ~1 F5 P: a; W3 H& N8 j
铿锵玫瑰/我是女人4K.I.Am.Woman.2019.2160p.STAN.WEBRip.AAC5.1.x265-4k电影信息
) A  I! Y. P7 @' O  uVideo0 W% W& N: r5 r# t
ID : 1  Q, g' ~& s3 J6 f
Format : HEVC  r4 ~9 G& F6 a8 a
Format/Info : High Efficiency Video Coding9 v6 Q5 T3 u' E8 I7 u
Format profile : Main@L5@High
) V1 @3 @2 {& O- E, Y+ tCodec ID : V_MPEGH/ISO/HEVC
5 P, B. r3 `/ x+ iDuration : 1 h 56 min
! r6 J# E' }4 rBit rate : 13.7 Mb/s6 }* o2 A" T: U6 }6 S* A# Z
Width : 3 840 pixels
% v/ L6 F, T3 nHeight : 2 160 pixels
, L  f5 X2 E; W( o/ Q" {8 v. BDisplay aspect ratio : 16:9
; U5 q1 Z4 B, Z5 pFrame rate mode : Constant+ v% ~8 @' c& U% u
Frame rate : 24.000 FPS
' y* B( R. f+ _  @1 UColor space : YUV
" l) G; v5 X. \# s- vChroma subsampling : 4:2:0
) ~2 d9 a- n) ~# w: A3 _Bit depth : 8 bits
3 E8 R* u- L/ h7 uBits/(Pixel*Frame) : 0.069
2 P2 s! q" s/ T/ \: ~# I+ VStream size : 11.1 GiB (97%)5 X, [- }2 i! o8 l/ B
Default : Yes
. x+ ]  _8 W/ U" C- w6 n) Z9 cForced : No
: [$ e0 a9 B% EColor range : Limited% g' `1 @. L7 C( X+ O
Color primaries : BT.709
5 B) l8 P% `: T: S4 h, V9 GTransfer characteristics : BT.709, |+ D. Q9 x+ p2 T3 Z9 ^, ~$ n/ |: [
Matrix coefficients : BT.709- H1 j4 ~/ u  t. L. C4 d- z/ |
8 T! o4 f* R9 H" ~, x
: x+ r0 k/ K( I" n4 J
Audio( d2 G: w, y6 G& ]% D8 D
ID : 2, {) F$ M6 w$ k3 N) ?& s% E+ z" b
Format : AAC LC
* t* H6 L7 L/ [5 K/ a+ aFormat/Info : Advanced Audio Codec Low Complexity
7 h6 Y4 q9 u2 b5 b5 _Codec ID : A_AAC-2# d/ L( D, i6 m. w& ?3 ]2 r
Duration : 1 h 56 min
+ J% ]# e: b! ]8 ^" N4 wBit rate : 445 kb/s
/ T( d& U) D1 j; H! DChannel(s) : 6 channels
) L# R. p: V7 C) \' W3 Y- x5 I, w% pChannel layout : C L R Ls Rs LFE
4 @' o3 @/ R! K* V& k- A0 zSampling rate : 48.0 kHz
8 j/ j6 E2 n0 |Frame rate : 46.875 FPS (1024 SPF)% g( \0 Q7 Y+ m- p' o! m. x
Compression mode : Lossy
5 Y2 ?* G0 y' j# R" Z* V4 Q7 ~  wStream size : 371 MiB (3%)
; f* o, Q! b6 s, o$ E' z$ JLanguage : English
; G$ \7 k' D1 l% r/ BDefault : Yes' F$ T' h0 S+ M0 w' d, p; c
Forced : No
' V% l2 v: S0 D$ E
$ z& j: e- f% I  u  a$ D  H

/ N0 t; T; M8 `Text
& i( A3 T2 j" C2 i$ y% m/ AID : 3
$ k! F5 L5 w0 ]& lFormat : UTF-81 f, v) N1 K$ Y2 |' Q
Codec ID : S_TEXT/UTF8. v( P) _" j4 o: O. a) S
Codec ID/Info : UTF-8 Plain Text1 N) R+ O+ d, T( W6 U3 d3 o6 X* ~$ a
Duration : 1 h 52 min# e+ e# j5 X' t
Bit rate : 69 b/s
4 J" d1 L0 \' N" Z+ zCount of elements : 1748! x0 i+ A$ e9 A& R5 g
Stream size : 57.0 KiB (0%)9 h3 [8 f; k' F% |% Z0 T1 M! V
Language : English" i& ~' J+ {  P2 f' k! ?2 e1 h
Default : No
+ h% W8 N* }3 |/ f+ ~8 s+ z' qForced : No

1 A" X) {6 _  V+ i, Q+ j: F0 o  k1 B0 a, |& w- N: [' g: I
蓝光高清网提示您  点击下方附件名称  马上开始下载  h, f, ?9 u5 m" C# A- n

9 n+ ^1 k! @4 ^+ `& ~铿锵玫瑰/我是女人4K.I.Am.Woman.2019.2160p.STAN.WEBRip.AAC5.1.x265-4K电影下载: h% t. a/ \. |) w9 i
) i. s' F/ s3 F& c
我是女人4K.I.Am.Woman.2019.2160p.STAN.WEBRip.AAC5.1.x265【11.48 GB】. ^, |! T0 `! W5 `
我是女人4K.I.Am.Woman.2019.2160p.STAN.WEBRip.AAC5.1.x265-playWEB.torrent 
         (57.93 KB    阅读权限: 20)
加入蓝光高清网VIP会员  无限制下载本站所有资源---点这里

资源下载、资源播放、字幕使用、无法下载等常见问题---点这里
回复

使用道具 举报

精彩评论6

gdlmxia 发表于 2020-10-11 20:05:49 | 显示全部楼层
太好啦&萬分感謝版主的無私發佈分享%
回复

使用道具 举报

喀喀 发表于 2020-10-11 23:19:29 | 显示全部楼层

: ]7 @) ?) a: C% E祝蓝光高清网越办越红火。
回复

使用道具 举报

喀喀 发表于 2020-10-12 09:26:16 | 显示全部楼层
非常感谢蓝光高清网分享的各种知识和资源,祝蓝光高清网越来越好
回复

使用道具 举报

YYR20140123 发表于 2020-10-12 19:39:39 | 显示全部楼层
非常感谢蓝光高清网分享的各种知识和资源,祝蓝光高清网越来越好
回复

使用道具 举报

wrangler7 发表于 2020-10-13 08:13:35 | 显示全部楼层
非常感谢蓝光高清网分享的各种知识和资源,祝蓝光高清网越来越好
回复

使用道具 举报

wrangler7 发表于 7 天前 | 显示全部楼层
  o# J: ]% W+ k7 J/ Q# y+ P. C
天天访问蓝光高清网  天天打卡  习惯了
回复

使用道具 举报

您需要登录后才可以回帖 登录 | 立即注册

本版积分规则

关注0

粉丝1

帖子89799

发布主题
最新电影 论坛
本期活动
联系我们
点击这里联系客服

服务时间:
周一到周日8:00-23:30

  • 打开微信扫一扫
    关注公众号

  • 手机QQ扫一扫
    添加客服

手机版蓝光高清网 |网站地图

Powered by Discuz! X3.4 Licensed  © 2001-2013 Comsenz Inc.