绍德王室
4K 
6.2
  • 年代: 2020年
  • 国家/地区:
  • 类型:  
  • 导演: 绍德王室
  • 音轨: Dolby TrueHD 5.1 
  • 时长: 97分钟
  • 主演:
特别声明:本站提供的所有高清电影作品均是在网上搜集,任何涉及商业盈利目的均不得使用,否则产生的一切后果将由您自己承担!本站将不对本站的任何内容负任何法律责任!该下载内容仅做宽带测试使用,请在下载后24小时内删除。请购买正版! 本站所有资源均由网上收集而来,版权归原影音公司所有,如果侵犯了你的权益,请通知我们,我们会及时删除侵权内容.

绍德王室4K.Kingdom.Of.Silence.2020.2160p.STAN.WEBRip.AAC5.1.x265-4K电影下载—9.45 GB

[复制链接]
蓝鸟 发表于 2020-10-11 16:53:25 | 显示全部楼层 |阅读模式 打印 上一主题 下一主题
简       介$ d% i) _1 ]+ O7 O
5 ?6 c1 S% S; f
记录沙特阿拉伯记者贾迈勒·卡舒吉被杀一案
2 P; {! ?+ {" r
" \1 n  v1 h0 T

8 G. o% ~# I3 k' J% ^
& r; H( X0 n7 N  }3 H

$ Y- u9 J6 n8 b影片参数
1 }% Q6 `( W3 H3 m! q
Kingdom of Silence/绍德王室4K.Kingdom.Of.Silence.2020.2160p.STAN.WEBRip.AAC5.1.x265-4k电影信息# w$ L( R2 {  x
Video
1 R/ [7 v* |- }ID : 18 w: z# D: B- f: v
Format : HEVC4 f( {- q1 p- e: M4 f( B6 M9 R. x
Format/Info : High Efficiency Video Coding8 v2 m7 `; N5 O! _( W0 m" g
Format profile : Main@L5@High$ [1 W' x7 r2 ^& m
Codec ID : V_MPEGH/ISO/HEVC
! p8 X: B  J1 kDuration : 1 h 37 min
- m0 n/ q! D  l0 M0 `4 J/ d6 wBit rate : 13.4 Mb/s
" r: M: l- d' Q' ZWidth : 3 840 pixels
$ ~" m% ~+ j2 ~; b6 U  JHeight : 2 160 pixels3 {$ n' v0 W3 X* y; A% |
Display aspect ratio : 16:9
2 p) D6 q4 D2 a. i8 A/ ]" S) O' nFrame rate mode : Constant
1 e1 m) [2 n0 B7 t4 RFrame rate : 23.976 (24000/1001) FPS$ A/ ^5 T& J7 i) ]8 y% e+ {: }7 m. M, I" x
Color space : YUV2 D: R" h! M$ q: v2 A# }2 `
Chroma subsampling : 4:2:0
4 y7 c0 m' k6 b! e' e6 y$ qBit depth : 8 bits
1 x7 Q! J7 s4 iBits/(Pixel*Frame) : 0.067
& z3 t$ G+ N7 s4 L' L! _' VStream size : 9.14 GiB (97%)
& q, `3 A& Z/ c0 w: Y5 \" G, QDefault : Yes4 i6 t# t. z/ z
Forced : No
  \/ e, Z9 O, O, uColor range : Limited' }( c$ o! Y6 j3 D! B; o" o
Matrix coefficients : BT.2020 non-constant" e3 U3 E; s( ?& r& K7 ^; ]; J
5 K0 G% H0 F/ x$ L
1 ]  p1 v( S4 ?; g6 L
Audio
) c! x6 d& X& mID : 2
0 Y4 ^' ^6 }! L' T9 C+ s7 y% A' oFormat : AAC LC7 l/ ~6 t. s9 U0 P& R
Format/Info : Advanced Audio Codec Low Complexity) U4 v; N" n' Q( N6 m9 N
Codec ID : A_AAC-2) z; _. m$ f) o% U& M) {
Duration : 1 h 37 min8 W; |: I$ K, H$ e3 J
Bit rate : 445 kb/s
6 c% C* }0 X4 o  N0 y, X) v$ {Channel(s) : 6 channels/ G: t0 r% H1 H
Channel layout : C L R Ls Rs LFE5 X3 X8 j! ]3 q$ \  I4 ]" p0 F& z
Sampling rate : 48.0 kHz
+ M  S1 G7 r  T( M  K5 iFrame rate : 46.875 FPS (1024 SPF)4 h3 E! L* D7 t. |# w- C: ^4 W+ M
Compression mode : Lossy6 t& N9 Z- `" {) l
Stream size : 312 MiB (3%)
8 v  W; C. y6 P( PLanguage : English
) d' e0 u6 F7 U" _& x- }Default : Yes% |* B' k- @6 N. ^  k+ N3 A4 e
Forced : No) {& N/ A6 G, U6 N# u8 ~

2 _7 z! s- N" z8 _
% o8 e4 @3 I, F: h' b; `
Text
$ X, }0 X4 v& |! vID : 3$ v5 r/ Z" y: `: n2 S0 r3 S1 H
Format : UTF-8/ T3 N2 ]; h1 V# h
Codec ID : S_TEXT/UTF80 {. r% E+ f  V
Codec ID/Info : UTF-8 Plain Text
' o& l4 W( Y8 P, QDuration : 1 h 36 min
3 u) H3 C- D: W2 Z$ y0 }0 \Bit rate : 87 b/s7 }+ F2 O# y3 y# b- ^
Count of elements : 1887
6 E" l. d6 z: |% m* VStream size : 61.5 KiB (0%)  C2 Y; r: ]; }' @0 J+ n
Language : English$ p+ Q5 m: o9 j
Default : No1 J: Z7 Q: A  D( e( ?7 H* j7 M6 P
Forced : No
( q+ v) x$ E% D9 x

2 H% }( |* F3 ]  d蓝光高清网提示您  点击下方附件名称  马上开始下载' s0 f5 P( [* e

) k& K/ E- {, M3 ]% ZKingdom of Silence/绍德王室4K.Kingdom.Of.Silence.2020.2160p.STAN.WEBRip.AAC5.1.x265-4K电影下载* x. Q* _+ q$ U4 i) u& E6 H1 d
% ?5 p- W) F6 S, k& ?. K* z
绍德王室4K.Kingdom.Of.Silence.2020.2160p.STAN.WEBRip.AAC5.1.x265【9.45 GB】
+ f4 R: G, f. p) k2 D
% |2 z5 `2 z, m6 K+ t( I8 _9 F5 ^ 绍德王室4K.Kingdom.Of.Silence.2020.2160p.STAN.WEBRip.AAC5.1.x265-playWEB.torrent 
         (47.81 KB    阅读权限: 20)
加入蓝光高清网VIP会员  无限制下载本站所有资源---点这里

资源下载、资源播放、字幕使用、无法下载等常见问题---点这里
回复

使用道具 举报

精彩评论3

gdlmxia 发表于 2020-10-11 19:59:17 | 显示全部楼层
太好啦&萬分感謝版主的無私發佈分享%
回复

使用道具 举报

wrangler7 发表于 2020-10-13 08:15:20 | 显示全部楼层
非常感谢蓝光高清网分享的各种知识和资源,祝蓝光高清网越来越好
回复

使用道具 举报

wrangler7 发表于 7 天前 | 显示全部楼层

7 w9 M9 @' ^) z- v  W( R天天访问蓝光高清网  天天打卡  习惯了
回复

使用道具 举报

您需要登录后才可以回帖 登录 | 立即注册

本版积分规则

关注0

粉丝1

帖子89799

发布主题
最新电影 论坛
本期活动
联系我们
点击这里联系客服

服务时间:
周一到周日8:00-23:30

  • 打开微信扫一扫
    关注公众号

  • 手机QQ扫一扫
    添加客服

手机版蓝光高清网 |网站地图

Powered by Discuz! X3.4 Licensed  © 2001-2013 Comsenz Inc.