休比的万圣节
4K HDR 
5.0
  • 年代: 2020年
  • 国家/地区: 美国
  • 类型: 喜剧 
  • 导演: 史蒂文·布里尔
  • 音轨: Dolby TrueHD 5.1 
  • 时长: 102分钟
  • 主演:亚当·桑德勒 / 凯莉·伯格伦德 / 玛娅·鲁道夫 / 史蒂夫·布西密 / 朱丽·鲍温
特别声明:本站提供的所有高清电影作品均是在网上搜集,任何涉及商业盈利目的均不得使用,否则产生的一切后果将由您自己承担!本站将不对本站的任何内容负任何法律责任!该下载内容仅做宽带测试使用,请在下载后24小时内删除。请购买正版! 本站所有资源均由网上收集而来,版权归原影音公司所有,如果侵犯了你的权益,请通知我们,我们会及时删除侵权内容.

休比的万圣节4k Hubie.Halloween.2020.2160p.NF.WEBRip.x265.10bit.SDR.DDP5.1.Atmos-4k电影下载—14.02 GB

[复制链接]
蓝鸟 发表于 2020-10-13 08:59:08 | 显示全部楼层 |阅读模式 打印 上一主题 下一主题
简       介
+ p  p! W1 Y' U/ O: _+ q, O* o/ p
  亚当·桑德勒扮演的休比·杜波依斯住在波士顿附近的塞勒姆小镇,他平时热心公益乐于助人,而且热爱万圣节,只是说话怪怪的,所有人都认为他是笨蛋。万圣节当晚,休比发现有真正的鬼怪在杀人并带来了混乱。警察和镇上的居民都不相信他,但休比拯救这个小镇的决心不会变。
5 a7 G2 C8 S9 w0 \. ~; o7 y  o. J9 w% Z$ U% v9 \/ i  D

) ]1 [& g' ^' S% }0 b影片参数; }# ~) Q- w* r5 Z$ G
万圣节救星修比 / 湖比万圣节/休比的万圣节4k Hubie.Halloween.2020.2160p.NF.WEBRip.x265.10bit.SDR.DDP5.1.Atmos-4k电影信息! ^# v( O0 U) H2 D# f2 E, w" T
Video% O; ?# _: p" C: W# S
ID : 1
+ r4 A; x! S( P0 F; w5 S: S3 pFormat : HEVC4 R7 q" L' v0 c# {+ o
Format/Info : High Efficiency Video Coding
3 v7 B* Q4 P4 X' r( t% ]  K/ pFormat profile : Main 10@L5.1@High  e/ s* i9 Q+ o: M" D; }" j
Codec ID : V_MPEGH/ISO/HEVC
) {4 q2 _' U9 `3 v2 C; [$ fDuration : 1 h 43 min- u1 R- _% n( Q4 w
Bit rate : 18.5 Mb/s
+ ?" |# i; A' t; k; tWidth : 3 840 pixels; i5 I$ g) `7 Y+ B+ g1 F7 C) A+ V( A
Height : 1 920 pixels
4 W1 ^0 ?/ `, }; g- ], nDisplay aspect ratio : 2.000
  ^$ q, Q, `; x. f, P$ LFrame rate mode : Constant
8 `+ H/ U) @: _Frame rate : 24.000 FPS
1 p0 H6 d/ S- m1 r0 F* FColor space : YUV
9 _1 A' T# X( ?! Y; P" C/ fChroma subsampling : 4:2:0
2 i& {" n, x$ i% a9 h! X6 P9 xBit depth : 10 bits
; k) E2 F6 x4 L) B" BBits/(Pixel*Frame) : 0.105
9 b0 H5 H' Y- |2 RStream size : 13.5 GiB (96%)
1 C; t$ a1 A! b& n& I& w# TWriting library : x265 3.4+26-ga82c6c7a7:[Windows][GCC 10.2.1][64 bit] 10bit* T* X/ ?" a) n: t1 a
Encoding settings : cpuid=1111039 / frame-threads=3 / numa-pools=12 / wpp / no-pmode / no-pme / no-psnr / no-ssim / log-level=2 / input-csp=1 / input-res=3840x1920 / interlace=0 / total-frames=149727 / level-idc=51 / high-tier=1 / uhd-bd=0 / ref=5 / no-allow-non-conformance / repeat-headers / annexb / aud / hrd / info / hash=0 / no-temporal-layers / open-gop / min-keyint=24 / keyint=250 / gop-lookahead=0 / bframes=8 / b-adapt=2 / b-pyramid / bframe-bias=0 / rc-lookahead=40 / lookahead-slices=8 / scenecut=40 / hist-scenecut=0 / radl=0 / no-splice / no-intra-refresh / ctu=64 / min-cu-size=8 / no-rect / no-amp / max-tu-size=32 / tu-inter-depth=4 / tu-intra-depth=4 / limit-tu=4 / rdoq-level=0 / dynamic-rd=0.00 / no-ssim-rd / signhide / no-tskip / nr-intra=0 / nr-inter=0 / no-constrained-intra / strong-intra-smoothing / max-merge=4 / limit-refs=1 / no-limit-modes / me=1 / subme=5 / merange=57 / temporal-mvp / no-frame-dup / no-hme / weightp / weightb / no-analyze-src-pics / deblock=-3:-3 / no-sao / no-sao-non-deblock / rd=4 / selective-sao=0 / early-skip / rskip / no-fast-intra / no-tskip-fast / no-cu-lossless / b-intra / no-splitrd-skip / rdpenalty=0 / psy-rd=2.00 / psy-rdoq=0.00 / no-rd-refine / no-lossless / cbqpoffs=0 / crqpoffs=0 / rc=crf / crf=19.0 / qcomp=0.60 / qpstep=4 / stats-write=0 / stats-read=0 / vbv-maxrate=160000 / vbv-bufsize=160000 / vbv-init=0.9 / min-vbv-fullness=50.0 / max-vbv-fullness=80.0 / crf-max=0.0 / crf-min=0.0 / ipratio=1.30 / pbratio=1.20 / aq-mode=1 / aq-strength=0.80 / no-cutree / zone-count=0 / no-strict-cbr / qg-size=32 / no-rc-grain / qpmax=69 / qpmin=0 / no-const-vbv / sar=1 / overscan=0 / videoformat=5 / range=0 / colorprim=1 / transfer=1 / colormatrix=1 / chromaloc=0 / display-window=0 / cll=0,0 / min-luma=0 / max-luma=1023 / log2-max-poc-lsb=8 / vui-timing-info / vui-hrd-info / slices=1 / no-opt-qp-pps / no-opt-ref-list-length-pps / no-multi-pass-opt-rps / scenecut-bias=0.05 / hist-threshold=0.03 / no-opt-cu-delta-qp / no-aq-motion / no-hdr10 / no-hdr10-opt / no-dhdr10-opt / no-idr-recovery-sei / analysis-reuse-level=0 / analysis-save-reuse-level=0 / analysis-load-reuse-level=0 / scale-factor=0 / refine-intra=0 / refine-inter=0 / refine-mv=1 / refine-ctu-distortion=0 / no-limit-sao / ctu-info=0 / no-lowpass-dct / refine-analysis-type=0 / copy-pic=1 / max-ausize-factor=1.0 / no-dynamic-refine / no-single-sei / no-hevc-aq / no-svt / no-field / qp-adaptation-range=1.00 / no-scenecut-aware-qpconformance-window-offsets / right=0 / bottom=0 / decoder-max-rate=0 / no-vbv-live-multi-pass+ D8 [2 x5 q. L& }. F2 l1 m
Default : Yes
( ~( u& N. T. A. f9 ~Forced : No
$ S* V4 D, Q3 wColor range : Limited2 Y7 H* R+ x; F% o" [9 c) O
Color primaries : BT.709' K% I2 }4 n1 [
Transfer characteristics : BT.7090 j4 ^# c  M# M# w
Matrix coefficients : BT.709
; |" k6 _0 c% `: E% k7 z
! o+ I. I0 f# x/ lAudio) i9 N+ ^8 z+ i' F, O
ID : 22 E5 k  {' N7 @: i& p3 o8 ~9 _" m
Format : E-AC-3 JOC
# Z$ w/ M/ Y$ F* Y% l- U0 F% }/ mFormat/Info : Enhanced AC-3 with Joint Object Coding+ v. B( Q+ @8 m1 f
Commercial name : Dolby Digital Plus with Dolby Atmos, k! Q& [3 e: i% A" R+ O. [: i
Codec ID : A_EAC35 k6 K4 c) f( h: M- a7 f# _
Duration : 1 h 43 min& \  G! R8 u3 i
Bit rate mode : Constant
$ n+ ~/ @' R- x$ dBit rate : 768 kb/s4 R3 C" Z5 [/ n! k5 N% |9 E$ u( _1 k4 a
Channel(s) : 6 channels& r. v9 u; N* L$ R& g
Channel layout : L R C LFE Ls Rs6 f0 ^4 M6 ?! \) W! V+ F$ o* a
Sampling rate : 48.0 kHz5 W" D6 b; `$ e% l$ h: k
Frame rate : 31.250 FPS (1536 SPF)7 ?/ y" F. @) t+ r
Compression mode : Lossy, g8 ^* K* \/ e4 v
Stream size : 571 MiB (4%)% e; N1 e0 Y4 k0 L) A* \- z, x- h
Language : English! E5 d) v7 _- w! G
Service kind : Complete Main
. y0 G6 \8 w4 ODefault : Yes
! a4 d4 a  {( ~8 ^: eForced : No- h4 t4 ]9 `1 o: ]* ]) O
Complexity index : 16
) @! p$ _7 e/ Z: k! @Number of dynamic objects : 15
/ X3 i2 [/ P) R- B, tBed channel count : 1 channel
$ C4 `4 X! m1 z7 E' V+ A: NBed channel configuration : LFE
# @2 A! \; V4 r' |; \. E. Z: v2 q8 G& n9 O5 z# l7 A5 k4 S, F
Text #1
" D/ ~4 D9 D; b6 o. {- C; @) i0 ]ID : 3
+ e5 X. i7 v% s9 V) C$ }Format : UTF-8# s3 T; l3 c7 V. b, N
Codec ID : S_TEXT/UTF8: Z, ^5 F; _6 A) j1 k
Codec ID/Info : UTF-8 Plain Text3 `' D5 b, \1 q6 |  T& Q, ^; f9 U* y: d. a1 u
Duration : 1 h 39 min
+ e$ u& M' v/ I4 x% _* S4 SBit rate : 96 b/s
8 {! l/ f+ q! w- Z8 Y: J* I. `Count of elements : 2038
: M8 [- P7 P+ _# {, vStream size : 70.0 KiB (0%)5 `$ k) R: W' u
Title : SDH
( [2 l0 Q' i2 G# RLanguage : English
# v; w! r2 t2 v9 l! p( @: vDefault : No
; V9 I1 B6 b6 k2 i2 s% n% fForced : No

3 s3 m5 F( u+ n: ~4 ?# U/ c0 A! _

! a, Z( ~" h: Z1 L' O3 K
; ]' v; t, t6 q2 w4 P精彩剧照* W* O& O- w! v$ k9 o; \+ _
7 l1 `) o* t/ ~/ O

休比的万圣节4k Hubie.Halloween.2020.2160p.NF.WEBRip.x265.10bit.SDR.DDP5.1.Atmos-4k电影下载—14.02 GB ...

休比的万圣节4k Hubie.Halloween.2020.2160p.NF.WEBRip.x265.10bit.SDR.DDP5.1.Atmos-4k电影下载—14.02 GB ...

休比的万圣节4k Hubie.Halloween.2020.2160p.NF.WEBRip.x265.10bit.SDR.DDP5.1.Atmos-4k电影下载—14.02 GB ...

休比的万圣节4k Hubie.Halloween.2020.2160p.NF.WEBRip.x265.10bit.SDR.DDP5.1.Atmos-4k电影下载—14.02 GB ...

休比的万圣节4k Hubie.Halloween.2020.2160p.NF.WEBRip.x265.10bit.SDR.DDP5.1.Atmos-4k电影下载—14.02 GB ...

休比的万圣节4k Hubie.Halloween.2020.2160p.NF.WEBRip.x265.10bit.SDR.DDP5.1.Atmos-4k电影下载—14.02 GB ...
) K- t  i; M# G

- T1 P3 c5 _# z6 H4 \& F# L7 Y
3 B  M+ g: Y# g# |8 {
蓝光高清网提示您  点击下方附件名称  马上开始下载, G5 o8 d) `* v, C
. Z; q9 X7 k4 J7 b0 B
万圣节救星修比 / 湖比万圣节/休比的万圣节4k Hubie.Halloween.2020.2160p.NF.WEBRip.x265.10bit.SDR.DDP5.1.Atmos-4k电影下载2 }" y* `; @7 |1 k. h  x

" V8 Q; w5 ?3 V" p0 L! Q6 s6 r/ P休比的万圣节4k Hubie.Halloween.2020.2160p.NF.WEBRip.x265.10bit.SDR.DDP5.1.Atmos【14.02 GB】

: k  `0 b* b* d' n. k( Z( x6 v- E& `+ I 休比的万圣节4k Hubie.Halloween.2020.2160p.NF.WEBRip.x265.10bit.SDR.DDP5.1.torrent 
         (70.64 KB    阅读权限: 20)
加入蓝光高清网VIP会员  无限制下载本站所有资源---点这里

资源下载、资源播放、字幕使用、无法下载等常见问题---点这里
回复

使用道具 举报

精彩评论2

gdlmxia 发表于 2020-10-13 11:48:25 | 显示全部楼层
太好啦&萬分感謝版主的無私發佈分享%
回复

使用道具 举报

wrangler7 发表于 6 天前 | 显示全部楼层

* p! [  D9 f/ N7 K" ?7 G+ t1 ?非常感谢蓝光高清网给大家的享乐4k,祝蓝光高清网越办越好!
回复

使用道具 举报

您需要登录后才可以回帖 登录 | 立即注册

本版积分规则

关注0

粉丝1

帖子89799

发布主题
最新电影 论坛
本期活动
联系我们
点击这里联系客服

服务时间:
周一到周日8:00-23:30

  • 打开微信扫一扫
    关注公众号

  • 手机QQ扫一扫
    添加客服

手机版蓝光高清网 |网站地图

Powered by Discuz! X3.4 Licensed  © 2001-2013 Comsenz Inc.