[其它] 米歇尔先生的狗 Mr.Michels.Dog.1977.1080p.BluRay.x264-BiPOLAR 571.27MB

[复制链接]
蓝鸟 发表于 2020-10-15 12:22:13 | 显示全部楼层 |阅读模式 打印 上一主题 下一主题

米歇尔先生的狗 Mr.Michels.Dog.1977.1080p.BluRay.x264-BiPOLAR 571.27MB

米歇尔先生的狗 Mr.Michels.Dog.1977.1080p.BluRay.x264-BiPOLAR 571.27MB



译  名 米歇尔先生的狗 / Mr. Michel"s Dog
片  名 Le chien de Monsieur Michel
年  代 1977
产  地 法国
类  别 短片
语  言 法语
上映日期 1977
IMDb评分  6.8/10 from 38 users
IMDb链接  https://www.imdb.com/title/tt0292474
豆瓣评分 0/10 from 0 users
豆瓣链接 https://movie.douban.com/subject/11502841/
片  长 15分钟
导  演 让-雅克·贝奈克斯 Jean-Jacques Beineix
编  剧 安德烈·卢耶 André Rouyer / 让-雅克·贝奈克斯 Jean-Jacques Beineix
主  演 伊夫·阿封索 Yves Afonso
       德尼兹·佩隆 Denise Péron


标  签 短片 | 法国 | Jean-Jacques_Beineix | 电影 | 法国电影 | 1970s

简  介  

  A short fiction about an impoverished man and his imaginary dog. Beineix" first film.

  谷歌为您翻译:
  关于一个贫穷的男人和他的想象中的狗的简短小说。贝尼克斯的第一部电影。

  腾讯为您翻译:
  一部关于一个贫穷的人和他想象中的狗的短篇小说。贝内克斯的第一部电影。

  本站为您翻译:
  一部关于一个穷人和他想象中的狗的短篇小说。贝内克斯的第一部电影。




该资源信息参数
  • Video
  • ID                                       : 1
  • Format                                   : AVC
  • Format/Info                              : Advanced Video Codec
  • Format profile                           : High@L4.1
  • Format settings                          : CABAC / 4 Ref Frames
  • Format settings, CABAC                   : Yes
  • Format settings, Reference frames        : 4 frames
  • Codec ID                                 : V_MPEG4/ISO/AVC
  • Duration                                 : 16 min 0 s
  • Bit rate                                 : 4 792 kb/s
  • Width                                    : 1 822 pixels
  • Height                                   : 1 080 pixels
  • Display aspect ratio                     : 5:3
  • Frame rate mode                          : Constant
  • Frame rate                               : 23.976 (24000/1001/45378) FPS
  • Color space                              : YUV
  • Chroma subsampling                       : 4:2:0
  • Bit depth                                : 8 bits
  • Scan type                                : Progressive
  • Bits/(Pixel*Frame)                       : 0.102
  • Stream size                              : 548 MiB (96%)
  • Writing library                          : x264 core 161 r3018 db0d417
  • Encoding settings                        : cabac=1 / ref=4 / deblock=1:-3:-3 / analyse=0x3:0x133 / me=umh / subme=10 / psy=1 / psy_rd=1.00:0.15 / mixed_ref=1 / me_range=24 / chroma_me=1 / trellis=2 / 8x8dct=1 / cqm=0 / deadzone=21,11 / fast_pskip=1 / chroma_qp_offset=-3 / threads=18 / lookahead_threads=3 / sliced_threads=0 / nr=0 / decimate=1 / interlaced=0 / bluray_compat=0 / constrained_intra=0 / bframes=8 / b_pyramid=2 / b_adapt=2 / b_bias=0 / direct=3 / weightb=1 / open_gop=0 / weightp=2 / keyint=250 / keyint_min=23 / scenecut=40 / intra_refresh=0 / rc_lookahead=60 / rc=crf / mbtree=1 / crf=19.0 / qcomp=0.60 / qpmin=0 / qpmax=69 / qpstep=4 / ip_ratio=1.40 / aq=3:0.60
  • Language                                 : English
  • Default                                  : Yes
  • Forced                                   : No
  • Audio
  • ID                                       : 2
  • Format                                   : AC-3
  • Format/Info                              : Audio Coding 3
  • Commercial name                          : Dolby Digital
  • Codec ID                                 : A_AC3
  • Duration                                 : 16 min 0 s
  • Bit rate mode                            : Constant
  • Bit rate                                 : 192 kb/s
  • Channel(s)                               : 1 channel
  • Channel layout                           : C
  • Sampling rate                            : 48.0 kHz
  • Frame rate                               : 31.250 FPS (1536 SPF)
  • Compression mode                         : Lossy
  • Stream size                              : 22.0 MiB (4%)
  • Language                                 : French
  • Service kind                             : Complete Main
  • Default                                  : Yes
  • Forced                                   : No
  • Text #1
  • ID                                       : 3
  • Format                                   : UTF-8
  • Codec ID                                 : S_TEXT/UTF8
  • Codec ID/Info                            : UTF-8 Plain Text
  • Duration                                 : 14 min 34 s
  • Bit rate                                 : 39 b/s
  • Count of elements                        : 129
  • Stream size                              : 4.26 KiB (0%)
  • Title                                    : English
  • Language                                 : English
  • Default                                  : Yes
  • Forced                                   : Yes
  • Text #2
  • ID                                       : 4
  • Format                                   : PGS
  • Muxing mode                              : zlib
  • Codec ID                                 : S_HDMV/PGS
  • Codec ID/Info                            : Picture based subtitle format used on BDs/HD-DVDs
  • Duration                                 : 14 min 34 s
  • Bit rate                                 : 5 689 b/s
  • Count of elements                        : 258
  • Stream size                              : 607 KiB (0%)
  • Title                                    : English
  • Language                                 : English
  • Default                                  : No
  • Forced                                   : No

复制代码


米歇尔先生的狗 Mr.Michels.Dog.1977.1080p.BluRay.x264-BiPOLAR 571.27MB

米歇尔先生的狗 Mr.Michels.Dog.1977.1080p.BluRay.x264-BiPOLAR 571.27MB



蓝光高清网提示您  点击下方附件名称  马上开始下载

米歇尔先生的狗 Mr.Michels.Dog.1977.1080p.BluRay.x264-BiPOLAR 571.27MB
Mr.Michels.Dog.1977.1080p.BluRay.x264-BiPOLAR.torrent 
         (11.8 KB    阅读权限: 0)
加入蓝光高清网VIP会员  无限制下载本站所有资源---点这里

资源下载、资源播放、字幕使用、无法下载等常见问题---点这里
回复

使用道具 举报

您需要登录后才可以回帖 登录 | 立即注册

本版积分规则

关注0

粉丝1

帖子89799

发布主题
最新电影 论坛
本期活动
联系我们
点击这里联系客服

服务时间:
周一到周日8:00-23:30

  • 打开微信扫一扫
    关注公众号

  • 手机QQ扫一扫
    添加客服

手机版蓝光高清网 |网站地图

Powered by Discuz! X3.4 Licensed  © 2001-2013 Comsenz Inc.