[其它] 传说在下午,有时会遇到吸血鬼. Emotion.1966.1080p.BluRay.x264-BiPOLAR 3.99GB

[复制链接]
蓝鸟 发表于 2020-10-15 12:23:24 | 显示全部楼层 |阅读模式 打印 上一主题 下一主题

传说在下午,有时会遇到吸血鬼. Emotion.1966.1080p.BluRay.x264-BiPOLAR 3.99GB

传说在下午,有时会遇到吸血鬼. Emotion.1966.1080p.BluRay.x264-BiPOLAR 3.99GB



译  名 传说在下午,有时会遇到吸血鬼.
片  名 EMOTION 伝説の午後 いつか見たドラキュラ
年  代 1966
产  地 日本
类  别 短片 / 奇幻
语  言 日语
IMDb评分  6.7/10 from 495 users
IMDb链接  https://www.imdb.com/title/tt0229367
豆瓣评分 8.0/10 from 312 users
豆瓣链接 https://movie.douban.com/subject/3044875/
片  长 39分钟
导  演 大林宣彦 Nobuhiko Obayashi
编  剧 大林宣彦 Nobuhiko Obayashi

标  签 日本 | 短片 | 大林宣彦 | 实验 | 大林宣彥 | 1960s | 奇幻 | 日本电影

简  介  

  Experimental short film depicting the life, perhaps real, perhaps a dream, of a young girl named Emi. Emi travels to the city where she encounters her counterpart, Sari, and falls in love with...a vampire?

  谷歌为您翻译:
  实验性短片,描绘了一个名叫埃米(Emi)的年轻女孩的生活,也许是真实的,或者是梦想。埃米(Emi)到她的同伴莎丽(Sari)遇到的那个城市旅行,并爱上了...一个吸血鬼?

  腾讯为您翻译:
  实验短片描绘了一个名叫艾米的年轻女孩的生活,可能是真实的,也可能是梦中的。百代去了一座城市,在那里她遇到了她的对手莎莉,并爱上了一个吸血鬼?

  本站为您翻译:
  实验短片描绘的生活,也许是真实的,也许是梦境,一个名叫艾米的年轻女孩。艾米旅行到一个城市,在那里她遇到了她的同行,莎莉,并爱上了... ... 一个吸血鬼?




该资源信息参数
  • Video
  • ID                                       : 1
  • Format                                   : AVC
  • Format/Info                              : Advanced Video Codec
  • Format profile                           : High@L4.1
  • Format settings                          : CABAC / 5 Ref Frames
  • Format settings, CABAC                   : Yes
  • Format settings, Reference frames        : 5 frames
  • Codec ID                                 : V_MPEG4/ISO/AVC
  • Duration                                 : 39 min 15 s
  • Bit rate                                 : 14.4 Mb/s
  • Width                                    : 1 406 pixels
  • Height                                   : 1 068 pixels
  • Display aspect ratio                     : 4:3
  • Frame rate mode                          : Constant
  • Frame rate                               : 23.976 (24000/1001/45378) FPS
  • Color space                              : YUV
  • Chroma subsampling                       : 4:2:0
  • Bit depth                                : 8 bits
  • Scan type                                : Progressive
  • Bits/(Pixel*Frame)                       : 0.399
  • Stream size                              : 3.94 GiB (99%)
  • Writing library                          : x264 core 161 r3018 db0d417
  • Encoding settings                        : cabac=1 / ref=5 / deblock=1:-3:-3 / analyse=0x3:0x133 / me=umh / subme=10 / psy=1 / psy_rd=1.00:0.15 / mixed_ref=1 / me_range=24 / chroma_me=1 / trellis=2 / 8x8dct=1 / cqm=0 / deadzone=21,11 / fast_pskip=1 / chroma_qp_offset=-3 / threads=18 / lookahead_threads=3 / sliced_threads=0 / nr=0 / decimate=1 / interlaced=0 / bluray_compat=0 / constrained_intra=0 / bframes=8 / b_pyramid=2 / b_adapt=2 / b_bias=0 / direct=3 / weightb=1 / open_gop=0 / weightp=2 / keyint=250 / keyint_min=23 / scenecut=40 / intra_refresh=0 / rc_lookahead=60 / rc=crf / mbtree=1 / crf=17.0 / qcomp=0.60 / qpmin=0 / qpmax=69 / qpstep=4 / ip_ratio=1.40 / aq=3:0.60
  • Language                                 : English
  • Default                                  : Yes
  • Forced                                   : No
  • Audio
  • ID                                       : 2
  • Format                                   : AC-3
  • Format/Info                              : Audio Coding 3
  • Commercial name                          : Dolby Digital
  • Codec ID                                 : A_AC3
  • Duration                                 : 39 min 15 s
  • Bit rate mode                            : Constant
  • Bit rate                                 : 192 kb/s
  • Channel(s)                               : 1 channel
  • Channel layout                           : C
  • Sampling rate                            : 48.0 kHz
  • Frame rate                               : 31.250 FPS (1536 SPF)
  • Compression mode                         : Lossy
  • Stream size                              : 53.9 MiB (1%)
  • Language                                 : Japanese
  • Service kind                             : Complete Main
  • Default                                  : Yes
  • Forced                                   : No
  • Text #1
  • ID                                       : 3
  • Format                                   : UTF-8
  • Codec ID                                 : S_TEXT/UTF8
  • Codec ID/Info                            : UTF-8 Plain Text
  • Duration                                 : 38 min 49 s
  • Bit rate                                 : 19 b/s
  • Count of elements                        : 191
  • Stream size                              : 5.69 KiB (0%)
  • Title                                    : English forced
  • Language                                 : English
  • Default                                  : Yes
  • Forced                                   : Yes
  • Text #2
  • ID                                       : 4
  • Format                                   : PGS
  • Muxing mode                              : zlib
  • Codec ID                                 : S_HDMV/PGS
  • Codec ID/Info                            : Picture based subtitle format used on BDs/HD-DVDs
  • Duration                                 : 38 min 49 s
  • Bit rate                                 : 4 348 b/s
  • Count of elements                        : 382
  • Stream size                              : 1.21 MiB (0%)
  • Title                                    : English forced
  • Language                                 : English
  • Default                                  : No
  • Forced                                   : No
  • Menu
  • 00:00:00.000                             : en:00:00:00.000
  • 00:02:52.005                             : en:00:02:52.005
  • 00:08:03.483                             : en:00:08:03.483
  • 00:15:30.763                             : en:00:15:30.763
  • 00:20:44.710                             : en:00:20:44.710
  • 00:28:22.534                             : en:00:28:22.534
  • 00:30:17.315                             : en:00:30:17.315

复制代码


传说在下午,有时会遇到吸血鬼. Emotion.1966.1080p.BluRay.x264-BiPOLAR 3.99GB

传说在下午,有时会遇到吸血鬼. Emotion.1966.1080p.BluRay.x264-BiPOLAR 3.99GB



蓝光高清网提示您  点击下方附件名称  马上开始下载

传说在下午,有时会遇到吸血鬼. Emotion.1966.1080p.BluRay.x264-BiPOLAR 3.99GB
Emotion.1966.1080p.BluRay.x264-BiPOLAR.torrent 
         (40.53 KB    阅读权限: 0)
加入蓝光高清网VIP会员  无限制下载本站所有资源---点这里

资源下载、资源播放、字幕使用、无法下载等常见问题---点这里
回复

使用道具 举报

您需要登录后才可以回帖 登录 | 立即注册

本版积分规则

关注0

粉丝1

帖子89799

发布主题
最新电影 论坛
本期活动
联系我们
点击这里联系客服

服务时间:
周一到周日8:00-23:30

  • 打开微信扫一扫
    关注公众号

  • 手机QQ扫一扫
    添加客服

手机版蓝光高清网 |网站地图

Powered by Discuz! X3.4 Licensed  © 2001-2013 Comsenz Inc.