[其它] 我们的费尔斯特先生去世了 Our.Dear.Mister.Foerster.Died.1962.1080p.BluRay.x264-BiPOLAR 1.92GB

[复制链接]
蓝鸟 发表于 2020-10-15 12:27:19 | 显示全部楼层 |阅读模式 打印 上一主题 下一主题

我们的费尔斯特先生去世了 Our.Dear.Mister.Foerster.Died.1962.1080p.BluRay.x264-BiPOLAR 1.92GB ...

我们的费尔斯特先生去世了 Our.Dear.Mister.Foerster.Died.1962.1080p.BluRay.x264-BiPOLAR 1.92GB ...



译  名 我们的费尔斯特先生去世了 / Our Mr. Foerster Died
片  名 Um?el nám pan Foerster
年  代 1962
产  地 捷克斯洛伐克
类  别 短片
语  言 捷克语
IMDb评分  6.8/10 from 35 users
IMDb链接  https://www.imdb.com/title/tt0173384
豆瓣评分 0/10 from 0 users
豆瓣链接 https://movie.douban.com/subject/1766842/
片  长 Czechoslovakia: 14 分钟
导  演 伊日·门泽尔 Jirí Menzel
编  剧 伊日·门泽尔 Jirí Menzel
主  演 博胡什·扎霍尔斯基 Bohus Záhorsky
       Svatava Hubeňáková


标  签 短片 | 捷克 | 1960s | 捷克/斯洛伐克 | 伊利·曼佐 | JiríMenzel | 捷克斯洛伐克 | 已收录

简  介  

  In beautiful sunny afternoon in Prague, a man of a certain age discusses his love of Provence. Suddenly, a black flag is suspended. The composer Foerster died.Graduation film of director Jirí Menzel.

  谷歌为您翻译:
  在布拉格美丽的阳光明媚的下午,一个年龄一定的男人谈论了他对普罗旺斯的热爱。突然,一个黑旗被挂起。作曲家弗斯特(Foerster)去世。

  腾讯为您翻译:
  在布拉格一个阳光明媚的下午,一位上了年纪的男子谈论他对普罗旺斯的爱。突然,一面黑色的旗帜悬挂起来。作曲家福斯特去世。导演Jir??menzel的毕业影片。




该资源信息参数
  • Video
  • ID                                       : 1
  • Format                                   : AVC
  • Format/Info                              : Advanced Video Codec
  • Format profile                           : High@L4.1
  • Format settings                          : CABAC / 5 Ref Frames
  • Format settings, CABAC                   : Yes
  • Format settings, Reference frames        : 5 frames
  • Codec ID                                 : V_MPEG4/ISO/AVC
  • Duration                                 : 15 min 23 s
  • Bit rate                                 : 17.6 Mb/s
  • Width                                    : 1 480 pixels
  • Height                                   : 1 080 pixels
  • Display aspect ratio                     : 1.370
  • Frame rate mode                          : Constant
  • Frame rate                               : 24.000 FPS
  • Color space                              : YUV
  • Chroma subsampling                       : 4:2:0
  • Bit depth                                : 8 bits
  • Scan type                                : Progressive
  • Bits/(Pixel*Frame)                       : 0.459
  • Stream size                              : 1.89 GiB (99%)
  • Writing library                          : x264 core 161 r3018 db0d417
  • Encoding settings                        : cabac=1 / ref=5 / deblock=1:-3:-3 / analyse=0x3:0x133 / me=umh / subme=10 / psy=1 / psy_rd=1.00:0.15 / mixed_ref=1 / me_range=24 / chroma_me=1 / trellis=2 / 8x8dct=1 / cqm=0 / deadzone=21,11 / fast_pskip=1 / chroma_qp_offset=-3 / threads=18 / lookahead_threads=3 / sliced_threads=0 / nr=0 / decimate=1 / interlaced=0 / bluray_compat=0 / constrained_intra=0 / bframes=8 / b_pyramid=2 / b_adapt=2 / b_bias=0 / direct=3 / weightb=1 / open_gop=0 / weightp=2 / keyint=250 / keyint_min=24 / scenecut=40 / intra_refresh=0 / rc_lookahead=60 / rc=crf / mbtree=1 / crf=19.7 / qcomp=0.60 / qpmin=0 / qpmax=69 / qpstep=4 / ip_ratio=1.40 / aq=3:0.50
  • Language                                 : English
  • Default                                  : Yes
  • Forced                                   : No
  • Color range                              : Limited
  • Matrix coefficients                      : BT.709
  • Audio
  • ID                                       : 2
  • Format                                   : FLAC
  • Format/Info                              : Free Lossless Audio Codec
  • Codec ID                                 : A_FLAC
  • Duration                                 : 15 min 24 s
  • Bit rate mode                            : Variable
  • Bit rate                                 : 239 kb/s
  • Channel(s)                               : 2 channels
  • Channel layout                           : L R
  • Sampling rate                            : 48.0 kHz
  • Frame rate                               : 11.719 FPS (4096 SPF)
  • Bit depth                                : 16 bits
  • Compression mode                         : Lossless
  • Stream size                              : 26.3 MiB (1%)
  • Writing library                          : libFLAC 1.2.1 (UTC 2007-09-17)
  • Language                                 : Czech
  • Default                                  : Yes
  • Forced                                   : No
  • Text #1
  • ID                                       : 3
  • Format                                   : UTF-8
  • Codec ID                                 : S_TEXT/UTF8
  • Codec ID/Info                            : UTF-8 Plain Text
  • Duration                                 : 13 min 30 s
  • Bit rate                                 : 26 b/s
  • Count of elements                        : 71
  • Stream size                              : 2.61 KiB (0%)
  • Title                                    : English
  • Language                                 : English
  • Default                                  : Yes
  • Forced                                   : Yes
  • Text #2
  • ID                                       : 4
  • Format                                   : PGS
  • Muxing mode                              : zlib
  • Codec ID                                 : S_HDMV/PGS
  • Codec ID/Info                            : Picture based subtitle format used on BDs/HD-DVDs
  • Duration                                 : 15 min 15 s
  • Bit rate                                 : 5 392 b/s
  • Count of elements                        : 144
  • Stream size                              : 603 KiB (0%)
  • Title                                    : English
  • Language                                 : English
  • Default                                  : No
  • Forced                                   : No
  • Menu
  • 00:00:00.000                             : en:00:00:00.000
  • 00:08:08.208                             : en:00:08:08.208

复制代码


我们的费尔斯特先生去世了 Our.Dear.Mister.Foerster.Died.1962.1080p.BluRay.x264-BiPOLAR 1.92GB ...

我们的费尔斯特先生去世了 Our.Dear.Mister.Foerster.Died.1962.1080p.BluRay.x264-BiPOLAR 1.92GB ...



蓝光高清网提示您  点击下方附件名称  马上开始下载

我们的费尔斯特先生去世了 Our.Dear.Mister.Foerster.Died.1962.1080p.BluRay.x264-BiPOLAR 1.92GB
Our.Dear.Mister.Foerster.Died.1962.1080p.BluRay.x264-BiPOLAR.torrent 
         (19.89 KB    阅读权限: 0)
加入蓝光高清网VIP会员  无限制下载本站所有资源---点这里

资源下载、资源播放、字幕使用、无法下载等常见问题---点这里
回复

使用道具 举报

您需要登录后才可以回帖 登录 | 立即注册

本版积分规则

关注0

粉丝1

帖子89799

发布主题
最新电影 论坛
本期活动
联系我们
点击这里联系客服

服务时间:
周一到周日8:00-23:30

  • 打开微信扫一扫
    关注公众号

  • 手机QQ扫一扫
    添加客服

手机版蓝光高清网 |网站地图

Powered by Discuz! X3.4 Licensed  © 2001-2013 Comsenz Inc.