[其它] 预制板公寓 Prefabricated.Houses.1960.1080p.BluRay.x264-BiPOLAR 891.83MB

[复制链接]
蓝鸟 发表于 2020-10-15 12:28:30 | 显示全部楼层 |阅读模式 打印 上一主题 下一主题

预制板公寓 Prefabricated.Houses.1960.1080p.BluRay.x264-BiPOLAR 891.83MB

预制板公寓 Prefabricated.Houses.1960.1080p.BluRay.x264-BiPOLAR 891.83MB



译  名 预制板公寓 / Prefabricated Houses
片  名 Domy z panel?
年  代 1960
产  地 捷克斯洛伐克
类  别 纪录片 / 短片
语  言 捷克语
IMDb评分  5.2/10 from 16 users
IMDb链接  https://www.imdb.com/title/tt0172344
豆瓣评分 0/10 from 0 users
豆瓣链接 https://movie.douban.com/subject/1766843/
导  演 伊日·门泽尔 Jirí Menzel
编  剧 伊日·门泽尔 Jirí Menzel

标  签 非默片 | 纪录片 | 短片 | 1959

简  介  

  A student work by Ji?í Menzel, filmed during his second year at the FAMU film school. Views of old Prague and its tenement buildings, symbolizing the obsolete past, alternate with shots of construction sites for new prefabricated apartment buildings. In spite of certain unavoidable propagandistic overtones added by the director, it is notable as the beginning of his search for a “dramaturgy of colors.”An early rare documentary by Ji?í Menzel

  谷歌为您翻译:
  吉尔·门泽尔(Ji?¨aMenzel)的学生作品,是他第二年在FAMU电影学校拍摄的。旧布拉格及其廉价公寓建筑的景色,象征着过时的过去,与新的预制公寓建筑工地的镜头交替出现。尽管导演添加了某些不可避免的宣传色彩,但值得注意的是,这是他寻找“色彩的透彻性”的开始。

  腾讯为您翻译:
  Ji???Menzel的学生作品,拍摄于他在法姆电影学院的第二年。古老的布拉格和它的房屋建筑的景色,象征着过时的过去,与新的预制公寓建筑的建筑工地的照片交替出现。尽管导演添加了一些不可避免的宣传意味,但值得注意的是,这是他探索??戏剧色彩的开始。??是Ji???Menzel早期罕见的纪录片




该资源信息参数
  • Video
  • ID                                       : 1
  • Format                                   : AVC
  • Format/Info                              : Advanced Video Codec
  • Format profile                           : High@L4.1
  • Format settings                          : CABAC / 5 Ref Frames
  • Format settings, CABAC                   : Yes
  • Format settings, Reference frames        : 5 frames
  • Codec ID                                 : V_MPEG4/ISO/AVC
  • Duration                                 : 7 min 6 s
  • Bit rate                                 : 17.3 Mb/s
  • Width                                    : 1 480 pixels
  • Height                                   : 1 080 pixels
  • Display aspect ratio                     : 1.370
  • Frame rate mode                          : Constant
  • Frame rate                               : 24.000 FPS
  • Color space                              : YUV
  • Chroma subsampling                       : 4:2:0
  • Bit depth                                : 8 bits
  • Scan type                                : Progressive
  • Bits/(Pixel*Frame)                       : 0.451
  • Stream size                              : 879 MiB (99%)
  • Writing library                          : x264 core 161 r3018 db0d417
  • Encoding settings                        : cabac=1 / ref=5 / deblock=1:-3:-3 / analyse=0x3:0x133 / me=umh / subme=10 / psy=1 / psy_rd=1.00:0.15 / mixed_ref=1 / me_range=24 / chroma_me=1 / trellis=2 / 8x8dct=1 / cqm=0 / deadzone=21,11 / fast_pskip=1 / chroma_qp_offset=-3 / threads=18 / lookahead_threads=3 / sliced_threads=0 / nr=0 / decimate=1 / interlaced=0 / bluray_compat=0 / constrained_intra=0 / bframes=8 / b_pyramid=2 / b_adapt=2 / b_bias=0 / direct=3 / weightb=1 / open_gop=0 / weightp=2 / keyint=250 / keyint_min=24 / scenecut=40 / intra_refresh=0 / rc_lookahead=60 / rc=crf / mbtree=1 / crf=19.0 / qcomp=0.60 / qpmin=0 / qpmax=69 / qpstep=4 / ip_ratio=1.40 / aq=3:0.50
  • Language                                 : English
  • Default                                  : Yes
  • Forced                                   : No
  • Color range                              : Limited
  • Matrix coefficients                      : BT.709
  • Audio
  • ID                                       : 2
  • Format                                   : FLAC
  • Format/Info                              : Free Lossless Audio Codec
  • Codec ID                                 : A_FLAC
  • Duration                                 : 7 min 6 s
  • Bit rate mode                            : Variable
  • Bit rate                                 : 241 kb/s
  • Channel(s)                               : 1 channel
  • Channel layout                           : C
  • Sampling rate                            : 48.0 kHz
  • Frame rate                               : 11.721 FPS (4095 SPF)
  • Bit depth                                : 16 bits
  • Compression mode                         : Lossless
  • Stream size                              : 12.2 MiB (1%)
  • Writing library                          : libFLAC 1.2.1 (UTC 2007-09-17)
  • Language                                 : Czech
  • Default                                  : Yes
  • Forced                                   : No
  • Text #1
  • ID                                       : 3
  • Format                                   : UTF-8
  • Codec ID                                 : S_TEXT/UTF8
  • Codec ID/Info                            : UTF-8 Plain Text
  • Duration                                 : 6 min 28 s
  • Bit rate                                 : 18 b/s
  • Count of elements                        : 21
  • Stream size                              : 921 Bytes (0%)
  • Title                                    : English
  • Language                                 : English
  • Default                                  : Yes
  • Forced                                   : Yes
  • Text #2
  • ID                                       : 4
  • Format                                   : PGS
  • Muxing mode                              : zlib
  • Codec ID                                 : S_HDMV/PGS
  • Codec ID/Info                            : Picture based subtitle format used on BDs/HD-DVDs
  • Duration                                 : 7 min 6 s
  • Bit rate                                 : 4 248 b/s
  • Count of elements                        : 44
  • Stream size                              : 221 KiB (0%)
  • Title                                    : English
  • Language                                 : English
  • Default                                  : No
  • Forced                                   : No

复制代码


预制板公寓 Prefabricated.Houses.1960.1080p.BluRay.x264-BiPOLAR 891.83MB

预制板公寓 Prefabricated.Houses.1960.1080p.BluRay.x264-BiPOLAR 891.83MB



蓝光高清网提示您  点击下方附件名称  马上开始下载

预制板公寓 Prefabricated.Houses.1960.1080p.BluRay.x264-BiPOLAR 891.83MB
Prefabricated.Houses.1960.1080p.BluRay.x264-BiPOLAR.torrent 
         (18.07 KB    阅读权限: 0)
加入蓝光高清网VIP会员  无限制下载本站所有资源---点这里

资源下载、资源播放、字幕使用、无法下载等常见问题---点这里
回复

使用道具 举报

您需要登录后才可以回帖 登录 | 立即注册

本版积分规则

关注0

粉丝1

帖子89799

发布主题
最新电影 论坛
本期活动
联系我们
点击这里联系客服

服务时间:
周一到周日8:00-23:30

  • 打开微信扫一扫
    关注公众号

  • 手机QQ扫一扫
    添加客服

手机版蓝光高清网 |网站地图

Powered by Discuz! X3.4 Licensed  © 2001-2013 Comsenz Inc.