[其它] 电影摄影机 The.Motion.Picture.Camera.1979.1080p.BluRay.x264-BiPOLAR 2.25GB

[复制链接]
蓝鸟 发表于 2020-10-15 12:29:40 | 显示全部楼层 |阅读模式 打印 上一主题 下一主题

电影摄影机 The.Motion.Picture.Camera.1979.1080p.BluRay.x264-BiPOLAR 2.25GB

电影摄影机 The.Motion.Picture.Camera.1979.1080p.BluRay.x264-BiPOLAR 2.25GB



译  名 电影摄影机
片  名 The Motion Picture Camera
年  代 1979
产  地 美国
类  别 纪录片 / 短片
语  言 英语
上映日期 1979(美国)
IMDb评分  6.6/10 from 9 users
IMDb链接  https://www.imdb.com/title/tt1647464
豆瓣评分 0/10 from 0 users
豆瓣链接 https://movie.douban.com/subject/5152611/
片  长 USA: 33 分钟
导  演 Karl Malkames
编  剧 Karl Malkames

标  签 美国 | 纪录片 | 短片 | Karl_Malkames | 1979 | 1970s

简  介  

  暂无相关剧情介绍



该资源信息参数
  • Video
  • ID                                       : 1
  • Format                                   : AVC
  • Format/Info                              : Advanced Video Codec
  • Format profile                           : High@L4.1
  • Format settings                          : CABAC / 5 Ref Frames
  • Format settings, CABAC                   : Yes
  • Format settings, Reference frames        : 5 frames
  • Codec ID                                 : V_MPEG4/ISO/AVC
  • Duration                                 : 33 min 18 s
  • Bit rate                                 : 9 492 kb/s
  • Width                                    : 1 480 pixels
  • Height                                   : 1 080 pixels
  • Display aspect ratio                     : 1.370
  • Frame rate mode                          : Constant
  • Frame rate                               : 23.976 (24000/1001/45378) FPS
  • Color space                              : YUV
  • Chroma subsampling                       : 4:2:0
  • Bit depth                                : 8 bits
  • Scan type                                : Progressive
  • Bits/(Pixel*Frame)                       : 0.248
  • Stream size                              : 2.21 GiB (98%)
  • Writing library                          : x264 core 161 r3018 db0d417
  • Encoding settings                        : cabac=1 / ref=5 / deblock=1:-3:-3 / analyse=0x3:0x133 / me=umh / subme=10 / psy=1 / psy_rd=1.00:0.15 / mixed_ref=1 / me_range=24 / chroma_me=1 / trellis=2 / 8x8dct=1 / cqm=0 / deadzone=21,11 / fast_pskip=1 / chroma_qp_offset=-3 / threads=18 / lookahead_threads=3 / sliced_threads=0 / nr=0 / decimate=1 / interlaced=0 / bluray_compat=0 / constrained_intra=0 / bframes=8 / b_pyramid=2 / b_adapt=2 / b_bias=0 / direct=3 / weightb=1 / open_gop=0 / weightp=2 / keyint=250 / keyint_min=23 / scenecut=40 / intra_refresh=0 / rc_lookahead=60 / rc=crf / mbtree=1 / crf=19.5 / qcomp=0.60 / qpmin=0 / qpmax=69 / qpstep=4 / ip_ratio=1.40 / aq=3:0.50
  • Language                                 : English
  • Default                                  : Yes
  • Forced                                   : No
  • Audio
  • ID                                       : 2
  • Format                                   : AC-3
  • Format/Info                              : Audio Coding 3
  • Commercial name                          : Dolby Digital
  • Codec ID                                 : A_AC3
  • Duration                                 : 33 min 18 s
  • Bit rate mode                            : Constant
  • Bit rate                                 : 192 kb/s
  • Channel(s)                               : 1 channel
  • Channel layout                           : C
  • Sampling rate                            : 48.0 kHz
  • Frame rate                               : 31.250 FPS (1536 SPF)
  • Compression mode                         : Lossy
  • Stream size                              : 45.7 MiB (2%)
  • Language                                 : English
  • Service kind                             : Complete Main
  • Default                                  : Yes
  • Forced                                   : No

复制代码


电影摄影机 The.Motion.Picture.Camera.1979.1080p.BluRay.x264-BiPOLAR 2.25GB

电影摄影机 The.Motion.Picture.Camera.1979.1080p.BluRay.x264-BiPOLAR 2.25GB



蓝光高清网提示您  点击下方附件名称  马上开始下载

电影摄影机 The.Motion.Picture.Camera.1979.1080p.BluRay.x264-BiPOLAR 2.25GB
The.Motion.Picture.Camera.1979.1080p.BluRay.x264-BiPOLAR.torrent 
         (23.2 KB    阅读权限: 0)
加入蓝光高清网VIP会员  无限制下载本站所有资源---点这里

资源下载、资源播放、字幕使用、无法下载等常见问题---点这里
回复

使用道具 举报

您需要登录后才可以回帖 登录 | 立即注册

本版积分规则

关注0

粉丝1

帖子89799

发布主题
最新电影 论坛
本期活动
联系我们
点击这里联系客服

服务时间:
周一到周日8:00-23:30

  • 打开微信扫一扫
    关注公众号

  • 手机QQ扫一扫
    添加客服

手机版蓝光高清网 |网站地图

Powered by Discuz! X3.4 Licensed  © 2001-2013 Comsenz Inc.