[其它] 不寻常的美国/美国春光 America.as.Seen.by.a.Frenchman.1960.1080p.BluRay.x264-BiPOLAR 13.79GB

[复制链接]
蓝鸟 发表于 2020-10-15 12:30:52 | 显示全部楼层 |阅读模式 打印 上一主题 下一主题

不寻常的美国/美国春光 America.as.Seen.by.a.Frenchman.1960.1080p.BluRay.x264-BiPOLAR 13.79GB ...

不寻常的美国/美国春光 America.as.Seen.by.a.Frenchman.1960.1080p.BluRay.x264-BiPOLAR 13.79GB ...



译  名 不寻常的美国 / America As Seen by a Frenchman / 美国春光(港)
片  名 L"Amérique insolite
年  代 1960
产  地 法国
类  别 纪录片
语  言 法语
上映日期 1961-09-22
IMDb评分  7.1/10 from 61 users
IMDb链接  https://www.imdb.com/title/tt0140808
豆瓣评分 0/10 from 0 users
豆瓣链接 https://movie.douban.com/subject/4307959/
片  长 France: 90 分钟
导  演 弗朗索瓦·莱兴巴赫 Fran?ois Reichenbach
编  剧 弗朗索瓦·莱兴巴赫 Fran?ois Reichenbach / 克里斯·马克 Chris Marker
主  演 June Richmond
       让·科克托 Jean Cocteau
       Paul Klinger


标  签 纪录片 | 法国导演电影 | P-CannesA入围主竞赛 | Marker,Chris | Marker | Chris

简  介  

  At the end of the 1950s, celebrated French documentarian Fran?ois Reichenbach (F for Fake, Portrait: Orson Welles), whose lens captured the likes of Brigitte Bardot and Johnny Hallyday, spent eighteen months travelling the United States, documenting its diverse regions, their inhabitants and their pastimes. The result, America As Seen by a Frenchman, is a wide-eyed – perhaps even na?ve – journey through a multitude of different Americas, filtered through a French sensibility and serving as a fascinating exploration of a culture that is both immediately familiar and thoroughly alien.Prison rodeos; Miss America pageants; visits to Disneyland and a school for striptease; a town inhabited solely by twins; rows of newborns in incubators, like products on an assembly line – all these weird and wondrous sights, and more, are captured, sans jugement, by Reichenbach’s camera, aided by whimsical narration (provided by, among others, Jean Cocteau) and a jaunty musical score by the late, great Michel Legrand (Une femme est une femme).Titled L’Amérique insolite – literally “unusual America” – in its native tongue, America As Seen by a Frenchman lovingly renders the various eccentricities of Americana circa the mid-twentieth century, and proves the old adage that reality really is stranger than fiction.

获奖情况  

  第13届戛纳电影节(1960)
  主竞赛单元 金棕榈奖(提名) 弗朗索瓦·莱兴巴赫

  谷歌为您翻译:
  1950年代末,著名的法国纪录片作家Fran?ois Reichenbach(F的假作,肖像:奥森·威尔斯)的镜头捕捉了Brigitte Bardot和Johnny Hallyday之类的人物,花了18个月的时间前往美国,记录了其不同地区的情况,他们的居民和消遣。结果,如法国人所见,“美洲”是在众多不同的美洲经历的一次开阔的“也许甚至是天真的”旅程,被法国的敏感性过滤,并成为对这两种文化的迷人探索。熟悉而彻底的外星人。美国小姐选美;参观迪斯尼乐园和一所脱衣舞学校;仅由双胞胎居住的城镇;在孵化器中排成一排的新生儿,就像装配线上的产品一样-所有这些奇怪而奇特的景象,以及更多,都是由赖兴巴赫的相机在不经意的叙述下(由Jean Cocteau等提供)捕获的, )和已故的伟大的米歇尔·雷格朗(Michel Legrand)(Une femme est une femme)的乐活乐谱。用原住民的母语“ America Asn”看,L"Amériqueinsolite的字面意思是“不寻常的America”。一位法国人深情地渲染了大约20世纪中叶的美国古怪,并证明了一句古老的谚语:现实确实比小说更奇怪。

  腾讯为您翻译:
  20世纪50年代末,法国著名纪录片作家弗朗索瓦·赖琴巴赫(Fran?ois Reichenbach,F代表虚假,肖像:奥森·威尔斯)花了18个月的时间周游美国,记录下美国不同的地区、居民和他们的娱乐活动。他的镜头捕捉到了碧姬·芭铎(Brigitte Bardot)和约翰尼·哈利迪(Johnny Hallyday)等人。其结果是,在法国人眼中的美国,是一次睁大眼睛的?C之旅,也许甚至是一次天真的?C之旅,穿越了众多不同的美洲,渗透了法国的情感,成为对一种既熟悉又完全陌生的文化的迷人探索。监狱竞技表演;美国小姐选美比赛;参观迪士尼乐园和脱衣舞学校;一个只有双胞胎居住的小镇;一排排的新生儿在保育箱里,就像装配线上的产品?C所有这些奇怪而奇妙的景象,都被赖欣巴赫·科克图(Reichenbach??)的相机捕捉到,没有调侃,辅以异想天开的叙述(其中包括让·科克图提供)和已故伟大的米歇尔·莱格朗(Un Femme Estune Femme)的欢快乐谱。标题为L??am??Rique Insolite?C字面意思是??Unique???C,用它的母语,一个法国人亲切地呈现了大约20世纪中期美国的各种古怪之处,并证明了古老的谚语,现实真的比小说更奇怪。




该资源信息参数
  • Video
  • ID                                       : 1
  • Format                                   : AVC
  • Format/Info                              : Advanced Video Codec
  • Format profile                           : High@L4.1
  • Format settings                          : CABAC / 5 Ref Frames
  • Format settings, CABAC                   : Yes
  • Format settings, Reference frames        : 5 frames
  • Codec ID                                 : V_MPEG4/ISO/AVC
  • Duration                                 : 1 h 30 min
  • Bit rate                                 : 21.1 Mb/s
  • Width                                    : 1 920 pixels
  • Height                                   : 818 pixels
  • Display aspect ratio                     : 2.35:1
  • Frame rate mode                          : Constant
  • Frame rate                               : 23.976 (24000/1001/45378) FPS
  • Color space                              : YUV
  • Chroma subsampling                       : 4:2:0
  • Bit depth                                : 8 bits
  • Scan type                                : Progressive
  • Bits/(Pixel*Frame)                       : 0.561
  • Stream size                              : 13.4 GiB (97%)
  • Writing library                          : x264 core 161 r3018 db0d417
  • Encoding settings                        : cabac=1 / ref=5 / deblock=1:-3:-3 / analyse=0x3:0x133 / me=umh / subme=10 / psy=1 / psy_rd=1.00:0.15 / mixed_ref=1 / me_range=24 / chroma_me=1 / trellis=2 / 8x8dct=1 / cqm=0 / deadzone=21,11 / fast_pskip=1 / chroma_qp_offset=-3 / threads=18 / lookahead_threads=3 / sliced_threads=0 / nr=0 / decimate=1 / interlaced=0 / bluray_compat=0 / constrained_intra=0 / bframes=8 / b_pyramid=2 / b_adapt=2 / b_bias=0 / direct=3 / weightb=1 / open_gop=0 / weightp=2 / keyint=250 / keyint_min=23 / scenecut=40 / intra_refresh=0 / rc_lookahead=60 / rc=crf / mbtree=1 / crf=20.5 / qcomp=0.60 / qpmin=0 / qpmax=69 / qpstep=4 / ip_ratio=1.40 / aq=3:0.50
  • Language                                 : English
  • Default                                  : Yes
  • Forced                                   : No
  • Color range                              : Limited
  • Matrix coefficients                      : BT.709
  • Audio
  • ID                                       : 2
  • Format                                   : FLAC
  • Format/Info                              : Free Lossless Audio Codec
  • Codec ID                                 : A_FLAC
  • Duration                                 : 1 h 30 min
  • Bit rate mode                            : Variable
  • Bit rate                                 : 604 kb/s
  • Channel(s)                               : 1 channel
  • Channel layout                           : C
  • Sampling rate                            : 48.0 kHz
  • Frame rate                               : 11.719 FPS (4096 SPF)
  • Bit depth                                : 24 bits
  • Compression mode                         : Lossless
  • Stream size                              : 392 MiB (3%)
  • Writing library                          : libFLAC 1.2.1 (UTC 2007-09-17)
  • Language                                 : French
  • Default                                  : Yes
  • Forced                                   : No
  • Text #1
  • ID                                       : 3
  • Format                                   : UTF-8
  • Codec ID                                 : S_TEXT/UTF8
  • Codec ID/Info                            : UTF-8 Plain Text
  • Duration                                 : 1 h 28 min
  • Bit rate                                 : 42 b/s
  • Count of elements                        : 632
  • Stream size                              : 27.4 KiB (0%)
  • Title                                    : English
  • Language                                 : English
  • Default                                  : Yes
  • Forced                                   : Yes
  • Text #2
  • ID                                       : 4
  • Format                                   : PGS
  • Muxing mode                              : zlib
  • Codec ID                                 : S_HDMV/PGS
  • Codec ID/Info                            : Picture based subtitle format used on BDs/HD-DVDs
  • Duration                                 : 1 h 28 min
  • Bit rate                                 : 6 410 b/s
  • Count of elements                        : 1264
  • Stream size                              : 4.05 MiB (0%)
  • Title                                    : English
  • Language                                 : English
  • Default                                  : No
  • Forced                                   : No
  • Menu
  • 00:00:00.000                             : en:00:00:00.000
  • 00:13:23.553                             : en:00:13:23.553
  • 00:24:50.656                             : en:00:24:50.656
  • 00:30:33.040                             : en:00:30:33.040
  • 00:34:42.414                             : en:00:34:42.414
  • 00:37:04.264                             : en:00:37:04.264
  • 00:44:21.742                             : en:00:44:21.742
  • 00:47:04.113                             : en:00:47:04.113
  • 01:03:23.800                             : en:01:03:23.800
  • 01:08:14.090                             : en:01:08:14.090
  • 01:18:29.204                             : en:01:18:29.204
  • 01:22:34.116                             : en:01:22:34.116

复制代码


不寻常的美国/美国春光 America.as.Seen.by.a.Frenchman.1960.1080p.BluRay.x264-BiPOLAR 13.79GB ...

不寻常的美国/美国春光 America.as.Seen.by.a.Frenchman.1960.1080p.BluRay.x264-BiPOLAR 13.79GB ...



蓝光高清网提示您  点击下方附件名称  马上开始下载

不寻常的美国/美国春光 America.as.Seen.by.a.Frenchman.1960.1080p.BluRay.x264-BiPOLAR 13.79GB
America.as.Seen.by.a.Frenchman.1960.1080p.BluRay.x264-BiPOLAR.torrent 
         (69.64 KB    阅读权限: 0)
加入蓝光高清网VIP会员  无限制下载本站所有资源---点这里

资源下载、资源播放、字幕使用、无法下载等常见问题---点这里
回复

使用道具 举报

您需要登录后才可以回帖 登录 | 立即注册

本版积分规则

关注0

粉丝1

帖子89799

发布主题
最新电影 论坛
本期活动
联系我们
点击这里联系客服

服务时间:
周一到周日8:00-23:30

  • 打开微信扫一扫
    关注公众号

  • 手机QQ扫一扫
    添加客服

手机版蓝光高清网 |网站地图

Powered by Discuz! X3.4 Licensed  © 2001-2013 Comsenz Inc.